<?xml version="1.0" standalone="no"?>
<!DOCTYPE svg PUBLIC "-//W3C//DTD SVG 1.1//EN" "http://www.w3.org/Graphics/SVG/1.1/DTD/svg11.dtd" >
<svg xmlns="http://www.w3.org/2000/svg">
<defs>
  <font id="FreshGrad-Line" horiz-adv-x="256">
    <font-face font-family="FreshGrad-Line"
      units-per-em="256" ascent="256"
      descent="0" />
    <missing-glyph horiz-adv-x="0" />
    <glyph glyph-name="Report1"
      unicode="&#xEA01;"
      horiz-adv-x="256" d="M202.6666666666667 78.1866666666667A10.666666666666666 10.666666666666666 0 0 0 192 88.8533333333333V156.2666666666667A10.666666666666666 10.666666666666666 0 0 0 213.3333333333334 156.2666666666667V88.8533333333334A10.666666666666666 10.666666666666666 0 0 0 202.6666666666667 78.1866666666667zM149.3333333333333 88.8533333333333V174.1866666666667A10.666666666666666 10.666666666666666 0 0 1 128 174.1866666666667V88.8533333333333A10.666666666666666 10.666666666666666 0 0 1 149.3333333333333 88.8533333333333zM85.3333333333333 88.8533333333333V129.28A10.666666666666666 10.666666666666666 0 0 1 64 129.28V88.8533333333333A10.666666666666666 10.666666666666666 0 1 1 85.3333333333333 88.8533333333333zM234.6666666666667 42.6666666666667A10.666666666666666 10.666666666666666 0 0 1 224 53.3333333333333H42.6666666666667V213.3333333333334A10.666666666666666 10.666666666666666 0 0 1 21.3333333333333 213.3333333333334V42.6666666666667A10.666666666666666 10.666666666666666 0 0 1 32 32H224A10.666666666666666 10.666666666666666 0 0 1 234.6666666666667 42.6666666666667z" />
    <glyph glyph-name="Report2"
      unicode="&#xEA02;"
      horiz-adv-x="256" d="M158.4 70.08A8 8 0 0 0 150.8266666666667 75.52L115.7333333333333 180.8L101.9733333333333 139.52A8 8 0 0 0 94.4 134.08H65.92A8 8 0 0 0 65.92 150.08H88.64L108.16 208.64A8 8 0 0 0 123.3066666666667 208.64L158.4 103.36L172.16 144.64A7.893333333333333 7.893333333333333 0 0 0 179.7333333333333 150.08H208.2133333333333A8 8 0 0 0 208.2133333333333 134.08H185.4933333333333L165.9733333333333 75.52A8 8 0 0 0 158.4 70.08zM235.7333333333333 43.9466666666667A10.666666666666666 10.666666666666666 0 0 1 225.0666666666666 54.6133333333333H43.7333333333333V214.6133333333334A10.666666666666666 10.666666666666666 0 0 1 22.4 214.6133333333334V43.9466666666667A10.666666666666666 10.666666666666666 0 0 1 33.0666666666667 33.28H225.0666666666667A10.666666666666666 10.666666666666666 0 0 1 235.7333333333333 43.9466666666667z" />
    <glyph glyph-name="Report3"
      unicode="&#xEA03;"
      horiz-adv-x="256" d="M217.4933333333334 170.6666666666667V131.7333333333334A8 8 0 1 0 201.4933333333334 131.7333333333334V151.1466666666667L153.6 103.2533333333333A7.893333333333333 7.893333333333333 0 0 0 142.2933333333334 103.2533333333333L115.52 129.92L72.8533333333334 87.2533333333333A7.573333333333334 7.573333333333334 0 0 0 67.2 84.9066666666667A7.893333333333333 7.893333333333333 0 0 0 61.5466666666667 87.2533333333333A8 8 0 0 0 61.5466666666667 98.56L110.1866666666667 147.0933333333333A7.893333333333333 7.893333333333333 0 0 0 121.4933333333334 147.0933333333333L148.2666666666667 120.4266666666667L190.9333333333333 163.0933333333333H170.6666666666667A8 8 0 0 0 170.6666666666667 179.0933333333333H209.4933333333334A7.68 7.68 0 0 0 212.5866666666667 178.4533333333333A8.213333333333333 8.213333333333333 0 0 0 217.3866666666667 172.6933333333333L217.4933333333334 170.6666666666667zM217.4933333333334 170.6666666666667V169.1733333333334A10.026666666666666 10.026666666666666 0 0 1 217.4933333333334 172.2666666666667V170.6666666666667zM236.8 46.1866666666667A10.666666666666666 10.666666666666666 0 0 1 226.1333333333334 56.8533333333333H44.8V216.8533333333333A10.666666666666666 10.666666666666666 0 0 1 23.4666666666667 216.8533333333333V46.1866666666667A10.666666666666666 10.666666666666666 0 0 1 34.1333333333334 35.52H226.1333333333334A10.666666666666666 10.666666666666666 0 0 1 236.8000000000001 46.1866666666667z" />
    <glyph glyph-name="activity"
      unicode="&#xEA04;"
      horiz-adv-x="256" d="M91.321 233.427C89.573 232.543 87.489 230.397 86.69 228.659C85.892 226.922 78.785 206.063 70.897 182.306L56.555 139.112L36.693 138.806L16.832 138.5L13.916 135.234C8.911 129.629 10.331 121.949 17.011 118.494C19.317 117.302 24.307 117.001 41.7 117.006C64.782 117.011 69.529 117.677 72.097 121.267C72.975 122.495 78.595 138.237 84.585 156.25C90.576 174.263 95.709 189 95.993 189C96.277 189 108.374 153.338 122.875 109.75C137.376 66.162 149.896 29.072 150.698 27.327C153.719 20.747 162.756 19.544 167.431 25.1C169.019 26.988 174.804 42.899 184.653 72.471L199.483 117L217.791 117C232.078 117 236.734 117.328 238.989 118.494C245.67 121.949 247.089 129.63 242.082 135.234L239.164 138.5L213.788 138.5C191.506 138.5 188.093 138.291 185.796 136.786C183.552 135.316 181.565 130.222 171.851 101.036C165.62 82.316 160.29 67 160.006 67C159.723 67 147.401 103.279 132.625 147.619C111.85 209.96 105.162 228.893 103.129 231.122C99.858 234.709 95.527 235.554 91.321 233.427" />
    <glyph glyph-name="airplay"
      unicode="&#xEA05;"
      horiz-adv-x="256" d="M35.131 233.811C28.992 232.44 21.881 227.787 17.674 222.387C10.761 213.515 10.908 215.224 11.22 147.402L11.5 86.5L14.203 81.377C17.654 74.833 24.708 68.627 31.64 66.033C35.759 64.493 39.469 64 46.961 64C56.109 64 57.074 64.191 59.889 66.56C63.865 69.905 64.931 75.115 62.547 79.542C60.243 83.821 57.3 85 48.921 85C45.079 85 40.405 85.64 38.534 86.421C31.851 89.214 32 87.773 32 149.546C32 199.668 32.165 205.471 33.665 208.01C34.581 209.561 36.402 211.318 37.712 211.915C41.059 213.44 214.941 213.44 218.288 211.915C219.598 211.318 221.419 209.561 222.335 208.01C223.835 205.471 224 199.668 224 149.546C224 87.773 224.149 89.214 217.466 86.421C215.595 85.64 210.921 85 207.079 85C198.7 85 195.757 83.821 193.453 79.542C191.069 75.115 192.135 69.905 196.111 66.56C198.926 64.191 199.891 64 209.039 64C216.712 64 220.214 64.482 224.681 66.154C232.449 69.06 239.94 76.551 242.846 84.319C244.963 89.975 245 91.108 245 149.527C245 205.066 244.878 209.301 243.14 213.874C239.317 223.934 230.418 231.672 220.134 233.878C213.41 235.32 41.613 235.258 35.131 233.811M124 105.248C118.803 102.652 65.348 38.37 64.463 33.652C63.586 28.979 65.644 24.929 70.001 22.752C73.203 21.151 78.106 21.003 127.782 21.002C187.327 21 187.401 21.007 190.434 26.872C192.29 30.462 192.383 33.695 190.715 36.655C190.047 37.84 177.35 53.45 162.5 71.343C137.973 100.896 132.122 107.005 128.349 106.998C127.882 106.998 125.925 106.21 124 105.248M143.348 61L157.912 43.5L142.956 43.224C134.73 43.072 121.274 43.072 113.054 43.224L98.108 43.5L112.804 61.226C120.887 70.975 127.789 78.85 128.142 78.726C128.496 78.602 135.338 70.625 143.348 61" />
    <glyph glyph-name="alert-circle"
      unicode="&#xEA06;"
      horiz-adv-x="256" d="M107.922 243.448C63.799 235.458 27.656 203.023 15.495 160.504C12.128 148.73 11.044 140.83 11.02 127.881C10.899 63.339 63.28 11.006 128 11.006C192.779 11.006 245 63.224 245 128C245 185.279 204.127 233.597 147.29 243.509C136.848 245.33 118.153 245.301 107.922 243.448M143.619 222.472C154.093 220.671 157.164 219.769 166.5 215.751C193.592 204.091 213.792 179.922 221.226 150.274C224.566 136.954 224.354 116.998 220.734 103.797C211.238 69.174 184.993 43.451 150.336 34.797C137.866 31.683 118.134 31.683 105.664 34.797C70.424 43.596 44.107 69.715 34.787 105.141C31.594 117.277 31.637 138.965 34.879 151C43.883 184.428 67.846 209.768 100 219.862C112.668 223.839 129.737 224.86 143.619 222.472M122.217 179.439C117.419 176.078 117 173.673 117 149.451C117 124.015 117.551 121.39 123.478 118.577C127.61 116.617 128.39 116.617 132.522 118.577C138.427 121.38 139 124.063 139 148.933C139 172.7 138.412 176.197 133.883 179.369C130.935 181.434 125.115 181.469 122.217 179.439" />
    <glyph glyph-name="alert-octagon"
      unicode="&#xEA07;"
      horiz-adv-x="256" d="M45.266 210.734L11 176.468L11 128L11 79.532L45.266 45.266L79.532 11L128 11L176.468 11L210.734 45.266L245 79.532L245 128L245 176.468L210.734 210.734L176.468 245L128 245L79.532 245L45.266 210.734M195.757 195.744L224 167.487L224 128L224 88.513L195.757 60.256L167.513 32L128 32L88.487 32L60.243 60.256L32 88.513L32 128L32 167.487L60.243 195.744L88.487 224L128 224L167.513 224L195.757 195.744M122.217 179.439C117.419 176.078 117 173.673 117 149.451C117 124.015 117.551 121.39 123.478 118.577C127.61 116.617 128.39 116.617 132.522 118.577C138.427 121.38 139 124.063 139 148.933C139 172.7 138.412 176.197 133.883 179.369C130.935 181.434 125.115 181.469 122.217 179.439" />
    <glyph glyph-name="alert-triangle"
      unicode="&#xEA08;"
      horiz-adv-x="256" d="M121.383 235.051C115.723 233.7 109.519 230.106 105.365 225.772C100.427 220.621 10.359 70.802 7.811 63.5C2.464 48.183 9.843 31.27 25 24.101L30.5 21.5L127 21.5C236.425 21.5 229.311 20.978 239.026 29.713C248.804 38.504 252.37 51.305 248.3 63C246.119 69.266 156.664 219.036 151.779 224.598C147.449 229.531 142.123 232.733 135.289 234.513C129.156 236.11 126.285 236.221 121.383 235.051M134.902 211.25C137.137 209.155 221.747 69.026 227.962 57.128C229.648 53.9 228.535 49.168 225.295 45.786L222.626 43L128.448 43C35.54 43 34.235 43.027 31.707 45.016C28.348 47.658 26.615 52.858 27.937 56.334C30.011 61.789 118.327 208.626 121.113 211.25C125.157 215.061 130.837 215.061 134.902 211.25M123.321 169.387C117.354 166.444 116.863 163.839 117.2 136.909L117.5 112.833L120.766 109.916C125.282 105.883 130.718 105.883 135.234 109.916L138.5 112.833L138.8 136.909C139.139 164.022 138.658 166.511 132.522 169.423C128.421 171.369 127.331 171.364 123.321 169.387" />
    <glyph glyph-name="align-center"
      unicode="&#xEA09;"
      horiz-adv-x="256" d="M27.321 201.387C24.404 199.948 21 194.893 21 192C21 191.341 21.71 189.307 22.577 187.478C25.814 180.658 20.249 181 128 181C235.751 181 230.186 180.658 233.423 187.478C235.383 191.61 235.383 192.39 233.423 196.522C230.185 203.344 235.774 203.002 127.849 202.977C41.495 202.957 30.141 202.777 27.321 201.387M58.353 158.074C54.782 155.896 52.565 150.582 53.565 146.598C53.924 145.166 55.554 142.87 57.186 141.497L60.153 139L128 139L195.847 139L198.85 141.527C202.62 144.7 203.566 148.708 201.635 153.33C198.742 160.254 201.551 160 127.8 159.996C64.198 159.993 61.372 159.914 58.353 158.074M25.77 115.034C19.796 110.334 20.088 101.746 26.353 97.926C29.399 96.069 32.649 96.007 127.8 96.004C237.013 96 230.682 95.602 233.628 102.652C235.454 107.023 234.114 111.979 230.293 114.984C227.763 116.975 226.474 117 128 117C30.357 117 28.217 116.959 25.77 115.034M59.321 73.387C56.404 71.948 53 66.893 53 64C53 63.341 53.71 61.307 54.577 59.478C57.738 52.818 55.674 53 128 53C200.326 53 198.262 52.818 201.423 59.478C203.383 63.61 203.383 64.39 201.423 68.522C198.26 75.186 200.348 75.002 127.849 74.977C70.555 74.957 62.108 74.761 59.321 73.387" />
    <glyph glyph-name="align-justify"
      unicode="&#xEA0A;"
      horiz-adv-x="256" d="M27.321 201.387C24.404 199.948 21 194.893 21 192C21 191.341 21.71 189.307 22.577 187.478C25.814 180.658 20.249 181 128 181C235.751 181 230.186 180.658 233.423 187.478C235.383 191.61 235.383 192.39 233.423 196.522C230.185 203.344 235.774 203.002 127.849 202.977C41.495 202.957 30.141 202.777 27.321 201.387M26.353 158.074C22.782 155.896 20.565 150.582 21.565 146.598C21.924 145.166 23.554 142.87 25.186 141.497L28.153 139L128 139L227.847 139L230.85 141.527C234.62 144.7 235.566 148.708 233.635 153.33C230.681 160.401 237.044 160 127.8 159.996C32.649 159.993 29.399 159.931 26.353 158.074M25.77 115.034C19.796 110.334 20.088 101.746 26.353 97.926C29.399 96.069 32.649 96.007 127.8 96.004C237.013 96 230.682 95.602 233.628 102.652C235.454 107.023 234.114 111.979 230.293 114.984C227.763 116.975 226.474 117 128 117C30.357 117 28.217 116.959 25.77 115.034M27.321 73.387C24.404 71.948 21 66.893 21 64C21 63.341 21.71 61.307 22.577 59.478C25.814 52.658 20.249 53 128 53C235.751 53 230.186 52.658 233.423 59.478C235.383 63.61 235.383 64.39 233.423 68.522C230.185 75.344 235.774 75.002 127.849 74.977C41.495 74.957 30.141 74.777 27.321 73.387" />
    <glyph glyph-name="align-left"
      unicode="&#xEA0B;"
      horiz-adv-x="256" d="M27.321 201.387C24.404 199.948 21 194.893 21 192C21 191.341 21.71 189.307 22.577 187.478C25.814 180.658 20.249 181 128 181C235.751 181 230.186 180.658 233.423 187.478C235.383 191.61 235.383 192.39 233.423 196.522C230.185 203.344 235.774 203.002 127.849 202.977C41.495 202.957 30.141 202.777 27.321 201.387M26.353 158.084C22.782 155.895 20.566 150.578 21.565 146.598C21.924 145.166 23.554 142.87 25.186 141.497L28.153 139L106.03 139C164.278 139 184.567 139.301 186.528 140.195C192.4 142.87 193.705 151.061 189.082 156.234L186.165 159.5L107.832 159.756C31.973 160.005 29.401 159.952 26.353 158.084M25.77 115.034C19.796 110.334 20.088 101.746 26.353 97.926C29.399 96.069 32.649 96.007 127.8 96.004C237.013 96 230.682 95.602 233.628 102.652C235.454 107.023 234.114 111.979 230.293 114.984C227.763 116.975 226.474 117 128 117C30.357 117 28.217 116.959 25.77 115.034M27.321 73.387C23.407 71.457 20.618 66.017 21.494 62.026C22.338 58.183 26.493 54.18 30.362 53.483C32.088 53.172 67.555 53.049 109.177 53.209C184.216 53.498 184.878 53.518 187.677 55.596C193.953 60.255 192.717 70.549 185.522 73.555C182.609 74.772 170.13 74.996 106.282 74.977C39.514 74.957 30.122 74.768 27.321 73.387" />
    <glyph glyph-name="align-right"
      unicode="&#xEA0C;"
      horiz-adv-x="256" d="M27.321 201.387C24.404 199.948 21 194.893 21 192C21 191.341 21.71 189.307 22.577 187.478C25.814 180.658 20.249 181 128 181C235.751 181 230.186 180.658 233.423 187.478C235.383 191.61 235.383 192.39 233.423 196.522C230.185 203.344 235.774 203.002 127.849 202.977C41.495 202.957 30.141 202.777 27.321 201.387M70.388 159.02C67.216 157.738 64 153.104 64 149.815C64 145.763 66.361 141.612 69.472 140.195C71.433 139.301 91.722 139 149.97 139L227.847 139L230.85 141.527C234.62 144.7 235.566 148.708 233.635 153.33C230.715 160.32 234.708 160.007 149.3 159.937C107.06 159.902 71.55 159.489 70.388 159.02M25.77 115.034C19.796 110.334 20.088 101.746 26.353 97.926C29.399 96.069 32.649 96.007 127.8 96.004C237.013 96 230.682 95.602 233.628 102.652C235.454 107.023 234.114 111.979 230.293 114.984C227.763 116.975 226.474 117 128 117C30.357 117 28.217 116.959 25.77 115.034M70.259 73.513C63.277 70.478 62.163 60.169 68.323 55.596C71.122 53.518 71.784 53.498 146.823 53.209C188.445 53.049 223.912 53.172 225.638 53.483C229.507 54.18 233.662 58.183 234.506 62.026C235.405 66.121 232.584 71.495 228.522 73.423C225.583 74.817 216.404 74.995 149.349 74.961C86.369 74.928 72.95 74.683 70.259 73.513" />
    <glyph glyph-name="anchor"
      unicode="&#xEA0D;"
      horiz-adv-x="256" d="M115.9 243.444C108.65 241.211 102.697 237.43 97.082 231.493C82.87 216.467 81.531 194.008 93.85 177.293C98.057 171.585 106.093 165.404 112.069 163.282L117 161.531L117 97.265C117 36.724 116.899 33 115.25 33.007C111.379 33.023 96.364 37.206 89.645 40.141C62.729 51.898 42.192 76.14 35.014 104.627C31.718 117.711 31.228 117 43.532 117C55.715 117 60.102 118.363 62.434 122.872C64.51 126.887 64.404 129.825 62.044 133.696C59.132 138.471 55.242 139.2 34.666 138.825L16.831 138.5L13.916 135.234C11.255 132.254 11 131.325 11 124.615C11 97.771 23.177 68.448 42.987 47.589C99.223 -11.625 196.63 3.175 233.266 76.5C240.13 90.238 245 110.207 245 124.615C245 131.325 244.745 132.254 242.084 135.234L239.168 138.5L220.697 138.811C205.975 139.058 201.495 138.816 198.623 137.616C191.286 134.55 189.977 124.311 196.319 119.596C198.737 117.799 200.84 117.452 211.069 117.166C225.08 116.774 224.405 117.765 220.524 103.279C211.498 69.588 184.429 43.066 150.855 35.017C146.26 33.915 141.713 33.011 140.75 33.007C139.101 33 139 36.724 139 97.265L139 161.531L143.931 163.282C152.985 166.498 162.674 175.809 167.069 185.517C169.81 191.571 171.082 201.496 170.046 208.742C167.732 224.932 155.66 238.757 139.698 243.497C133.439 245.356 122.024 245.33 115.9 243.444M136.509 222.135C152.314 214.955 153.199 192.463 138.007 184.066C121.545 174.966 102.049 191.469 107.991 209.474C111.798 221.007 125.551 227.113 136.509 222.135" />
    <glyph glyph-name="aperture"
      unicode="&#xEA0E;"
      horiz-adv-x="256" d="M107.922 243.448C83.091 238.952 60.3 226.606 42.709 208.123C13.488 177.419 3.563 133.195 16.61 91.829C31.574 44.381 77.329 10.989 127.358 11.003C192.843 11.022 245 62.893 245 128C245 183.589 207.348 230.044 152.141 242.568C139.734 245.382 120.696 245.761 107.922 243.448M120.545 222.25C119.563 219.678 80.914 152.722 79.553 151.233C78.65 150.245 75.81 154.439 66.701 170.207L55.007 190.449L60.754 196.298C70.209 205.921 86.226 215.538 100 219.862C102.84 220.754 116.886 223.547 120.357 223.91C120.828 223.96 120.913 223.212 120.545 222.25M153.421 220.478C172.296 215.562 193.801 200.945 204.904 185.485L208.124 181L164.979 181C141.249 181 121.983 181.359 122.167 181.797C124.164 186.573 145.52 222 146.402 222C147.05 222 150.208 221.315 153.421 220.478M56.027 146C62.798 134.175 72.009 118.2 76.494 110.5L84.649 96.5L61.176 96.232C48.266 96.084 37.55 96.117 37.361 96.305C37.173 96.493 36.022 100.439 34.803 105.074C31.615 117.199 31.63 138.944 34.836 150.827C38.164 163.164 41.228 170.226 42.6 168.721C43.213 168.05 49.255 157.825 56.027 146M155.737 143.928L164.975 127.887L155.751 111.943L146.527 96L128.013 96.005L109.5 96.009L100.263 112.062L91.026 128.114L100.25 144.057L109.473 160L127.987 159.984L146.5 159.969L155.737 143.928M221.125 150.75C224.363 137.683 224.351 117.215 221.098 105C218.622 95.7 215.189 87 213.995 87C213.578 87 208.508 95.213 202.729 105.25C196.95 115.287 187.466 131.713 181.653 141.75L171.084 160L194.959 160L218.833 160L221.125 150.75M189.47 85.443L200.968 65.526L195.234 59.69C188.297 52.63 176.054 44.336 166.336 40.115C159.615 37.196 147.381 33.894 138.662 32.646C135.344 32.172 134.911 32.328 135.471 33.799C136.221 35.77 174.815 102.868 176.296 104.774C176.84 105.475 177.44 105.894 177.629 105.705C177.818 105.516 183.146 96.398 189.47 85.443M133.833 74.204C132.117 70.107 110.496 34 109.758 34C107.146 34 95.731 37.502 89.5 40.214C75.212 46.435 61.916 56.818 52.321 69.25L47.883 75L91.025 75C114.753 75 134.017 74.642 133.833 74.204" />
    <glyph glyph-name="archive"
      unicode="&#xEA0F;"
      horiz-adv-x="256" d="M6.315 233.536C0.13 230.847 -0.117 229.324 0.208 195.885L0.5 165.833L3.766 162.917C6.713 160.285 7.713 160 14.016 160L21 160L21 95.401C21 23.693 20.817 25.738 27.509 22.563C30.518 21.135 41.007 20.998 129.413 21.236L227.962 21.5L231.231 24.769L234.5 28.038L234.771 94.019L235.042 160L242.005 160C248.285 160 249.289 160.286 252.234 162.917L255.5 165.833L255.792 195.885C256.1190000000001 229.537 255.891 230.894 249.466 233.579C244.451 235.674 11.136 235.633 6.315 233.536M234.775 197.25L234.5 181.5L127.75 181.245L21 180.991L21 196.995L21 213L128.025 213L235.051 213L234.775 197.25M213 101.5L213 43L128 43L43 43L43 101.5L43 160L128 160L213 160L213 101.5M102.259 137.513C95.277 134.478 94.163 124.169 100.323 119.596C103.012 117.6 104.333 117.5 128 117.5C151.667 117.5 152.988 117.6 155.677 119.596C161.953 124.255 160.718 134.549 153.522 137.555C148.616 139.605 106.993 139.571 102.259 137.513" />
    <glyph glyph-name="arrow-down-circle"
      unicode="&#xEA10;"
      horiz-adv-x="256" d="M107.922 243.448C63.799 235.458 27.656 203.023 15.495 160.504C12.128 148.73 11.044 140.83 11.02 127.881C10.899 63.339 63.28 11.006 128 11.006C192.779 11.006 245 63.224 245 128C245 185.279 204.127 233.597 147.29 243.509C136.848 245.33 118.153 245.301 107.922 243.448M143.619 222.472C154.093 220.671 157.164 219.769 166.5 215.751C193.592 204.091 213.792 179.922 221.226 150.274C224.566 136.954 224.354 116.998 220.734 103.797C211.238 69.174 184.993 43.451 150.336 34.797C137.866 31.683 118.134 31.683 105.664 34.797C70.424 43.596 44.107 69.715 34.787 105.141C31.594 117.277 31.637 138.965 34.879 151C43.883 184.428 67.846 209.768 100 219.862C112.668 223.839 129.737 224.86 143.619 222.472M122.217 179.439C117.232 175.948 117 174.275 117 141.814L117 111.529L104.25 124.215C97.237 131.192 90.184 137.391 88.576 137.992C81.865 140.496 75 135.29 75 127.696C75 123.609 75.373 123.172 99.273 99.273L123.545 75L128 75L132.455 75L156.727 99.273C180.627 123.172 181 123.609 181 127.696C181 135.29 174.135 140.496 167.424 137.992C165.816 137.391 158.762 131.192 151.75 124.215L139 111.529L139 141.297C139 173.228 138.621 176.051 133.883 179.369C130.935 181.434 125.115 181.469 122.217 179.439" />
    <glyph glyph-name="arrow-down-left"
      unicode="&#xEA11;"
      horiz-adv-x="256" d="M70.388 191.02C69.227 190.551 67.314 188.943 66.138 187.448C64.011 184.744 64 184.443 64 127.765L64 70.8L67.4 67.4L70.8 64L127.823 64L184.847 64L187.889 66.56C193.575 71.345 192.724 80.982 186.359 83.882C184.677 84.649 170.802 85 142.207 85L100.508 85L145.15 129.75C169.702 154.363 190.288 175.483 190.896 176.684C194.952 184.707 186.646 194.125 177.837 191.491C176.552 191.107 155.137 170.483 130.25 145.661L85 100.53L84.978 143.015C84.957 181.759 84.803 185.688 83.228 187.633C79.943 191.688 75.163 192.949 70.388 191.02" />
    <glyph glyph-name="arrow-down-right"
      unicode="&#xEA12;"
      horiz-adv-x="256" d="M70.388 191.02C65.165 188.91 62.534 181.769 65.104 176.684C65.712 175.483 86.298 154.363 110.85 129.75L155.492 85L113.793 85C85.198 85 71.323 84.649 69.641 83.882C63.276 80.982 62.425 71.345 68.111 66.56L71.153 64L128.177 64L185.2 64L188.6 67.4L192 70.8L192 127.823L192 184.847L189.44 187.889C186.411 191.489 181.292 192.778 177.032 191.013C170.91 188.478 171 189.194 171 142.789L171 100.508L126.25 145.15C101.638 169.702 80.517 190.288 79.316 190.896C76.773 192.181 73.379 192.228 70.388 191.02" />
    <glyph glyph-name="arrow-down"
      unicode="&#xEA13;"
      horiz-adv-x="256" d="M122.217 211.439C116.906 207.719 117 208.976 117 141.806L117 79.513L88.25 108.209C72.306 124.123 58.198 137.391 56.576 137.994C49.858 140.495 43 135.289 43 127.687C43 123.543 43.152 123.376 83.264 83.264L123.528 43L128 43L132.472 43L172.736 83.264C212.848 123.376 213 123.543 213 127.687C213 135.289 206.142 140.495 199.424 137.994C197.802 137.391 183.694 124.123 167.75 108.209L139 79.513L139 141.289C139 207.672 138.991 207.791 133.883 211.369C130.935 213.434 125.115 213.469 122.217 211.439" />
    <glyph glyph-name="arrow-left-circle"
      unicode="&#xEA14;"
      horiz-adv-x="256" d="M107.922 243.448C63.799 235.458 27.656 203.023 15.495 160.504C12.128 148.73 11.044 140.83 11.02 127.881C10.899 63.339 63.28 11.006 128 11.006C192.779 11.006 245 63.224 245 128C245 185.279 204.127 233.597 147.29 243.509C136.848 245.33 118.153 245.301 107.922 243.448M143.619 222.472C154.093 220.671 157.164 219.769 166.5 215.751C193.592 204.091 213.792 179.922 221.226 150.274C224.566 136.954 224.354 116.998 220.734 103.797C211.238 69.174 184.993 43.451 150.336 34.797C137.866 31.683 118.134 31.683 105.664 34.797C70.424 43.596 44.107 69.715 34.787 105.141C31.594 117.277 31.637 138.965 34.879 151C43.883 184.428 67.846 209.768 100 219.862C112.668 223.839 129.737 224.86 143.619 222.472M99.273 156.727L75 132.455L75 127.95L75 123.446L99.297 99.223C123.161 75.431 123.667 75 127.72 75C135.289 75 140.492 81.876 137.992 88.576C137.391 90.184 131.192 97.238 124.215 104.25L111.529 117L141.814 117C166.727 117 172.612 117.265 174.989 118.494C181.669 121.949 183.089 129.629 178.083 135.234L175.167 138.5L143.566 139L111.965 139.5L124.086 151.5C130.753 158.1 136.858 165.001 137.653 166.836C140.605 173.648 135.406 181 127.638 181C123.627 181 123.061 180.516 99.273 156.727" />
    <glyph glyph-name="arrow-left"
      unicode="&#xEA15;"
      horiz-adv-x="256" d="M83.264 172.736L43 132.472L43 127.97L43 123.467L83.279 83.233C123.351 43.206 123.579 43 127.702 43C135.288 43 140.493 49.865 137.994 56.576C137.391 58.198 124.123 72.306 108.209 88.25L79.513 117L141.806 117C195.116 117 204.516 117.215 206.989 118.494C213.67 121.949 215.089 129.63 210.083 135.234L207.165 138.5L143.575 139L79.985 139.5L108.093 167.5C124.12 183.465 136.824 196.934 137.65 198.836C140.609 205.649 135.408 213 127.629 213C123.562 213 123.193 212.665 83.264 172.736" />
    <glyph glyph-name="arrow-right-circle"
      unicode="&#xEA16;"
      horiz-adv-x="256" d="M107.922 243.448C63.799 235.458 27.656 203.023 15.495 160.504C12.128 148.73 11.044 140.83 11.02 127.881C10.899 63.339 63.28 11.006 128 11.006C192.779 11.006 245 63.224 245 128C245 185.279 204.127 233.597 147.29 243.509C136.848 245.33 118.153 245.301 107.922 243.448M143.619 222.472C154.093 220.671 157.164 219.769 166.5 215.751C193.592 204.091 213.792 179.922 221.226 150.274C224.566 136.954 224.354 116.998 220.734 103.797C211.238 69.174 184.993 43.451 150.336 34.797C137.866 31.683 118.134 31.683 105.664 34.797C70.424 43.596 44.107 69.715 34.787 105.141C31.594 117.277 31.637 138.965 34.879 151C43.883 184.428 67.846 209.768 100 219.862C112.668 223.839 129.737 224.86 143.619 222.472M121.707 178.984C117.923 176.008 116.54 171.006 118.347 166.836C119.142 165.001 125.247 158.1 131.914 151.5L144.035 139.5L112.434 139L80.833 138.5L77.917 135.234C72.911 129.629 74.331 121.949 81.011 118.494C83.388 117.265 89.273 117 114.186 117L144.471 117L131.785 104.25C124.808 97.238 118.609 90.184 118.008 88.576C115.508 81.876 120.711 75 128.28 75C132.333 75 132.839 75.431 156.703 99.223L181 123.446L181 127.95L181 132.455L156.727 156.727C132.939 180.516 132.373 181 128.362 181C125.773 181 123.328 180.259 121.707 178.984" />
    <glyph glyph-name="arrow-right"
      unicode="&#xEA17;"
      horiz-adv-x="256" d="M121.707 210.984C117.921 208.006 116.539 203.006 118.35 198.836C119.176 196.934 131.88 183.465 147.907 167.5L176.015 139.5L112.425 139L48.835 138.5L45.917 135.234C40.911 129.63 42.33 121.949 49.011 118.494C51.484 117.215 60.884 117 114.194 117L176.487 117L147.791 88.25C131.877 72.306 118.609 58.198 118.006 56.576C115.507 49.865 120.712 43 128.298 43C132.421 43 132.649 43.206 172.721 83.233L213 123.467L213 127.97L213 132.472L172.736 172.736C132.807 212.665 132.438 213 128.371 213C125.773 213 123.33 212.261 121.707 210.984" />
    <glyph glyph-name="arrow-up-circle"
      unicode="&#xEA18;"
      horiz-adv-x="256" d="M107.922 243.448C63.799 235.458 27.656 203.023 15.495 160.504C12.128 148.73 11.044 140.83 11.02 127.881C10.899 63.339 63.28 11.006 128 11.006C192.779 11.006 245 63.224 245 128C245 185.279 204.127 233.597 147.29 243.509C136.848 245.33 118.153 245.301 107.922 243.448M143.619 222.472C154.093 220.671 157.164 219.769 166.5 215.751C193.592 204.091 213.792 179.922 221.226 150.274C224.566 136.954 224.354 116.998 220.734 103.797C211.238 69.174 184.993 43.451 150.336 34.797C137.866 31.683 118.134 31.683 105.664 34.797C70.424 43.596 44.107 69.715 34.787 105.141C31.594 117.277 31.637 138.965 34.879 151C43.883 184.428 67.846 209.768 100 219.862C112.668 223.839 129.737 224.86 143.619 222.472M99.273 156.727C75.657 133.112 75 132.346 75 128.45C75 123.764 76.936 120.602 81.134 118.431C86.66 115.573 89.366 117.113 103.709 131.278L116.918 144.323L117.209 112.578L117.5 80.834L120.766 77.917C123.211 75.733 125.029 75 128 75C130.971 75 132.789 75.733 135.234 77.917L138.5 80.834L138.791 112.578L139.082 144.323L152.291 131.278C166.634 117.113 169.34 115.573 174.866 118.431C179.064 120.602 181 123.764 181 128.45C181 132.346 180.343 133.112 156.727 156.727L132.455 181L128 181L123.545 181L99.273 156.727" />
    <glyph glyph-name="arrow-up-left"
      unicode="&#xEA19;"
      horiz-adv-x="256" d="M67.4 188.6L63.952 185.152L64.226 127.494L64.5 69.835L67.766 66.918C71.421 63.652 75.461 63.153 79.855 65.425C84.899 68.033 85 68.984 85 113.793L85 155.492L129.75 110.85C154.363 86.298 175.483 65.712 176.684 65.104C184.708 61.047 194.141 69.37 191.484 78.163C191.095 79.448 170.476 100.863 145.664 125.75L100.55 171L142.228 171C187.014 171 187.967 171.101 190.575 176.145C192.847 180.539 192.348 184.579 189.082 188.234L186.165 191.5L128.506 191.774L70.848 192.048L67.4 188.6" />
    <glyph glyph-name="arrow-up-right"
      unicode="&#xEA1A;"
      horiz-adv-x="256" d="M70.388 191.02C64.888 188.798 62.533 181.738 65.425 176.145C68.033 171.101 68.986 171 113.772 171L155.45 171L110.336 125.75C85.524 100.863 64.905 79.448 64.516 78.163C61.859 69.37 71.292 61.047 79.316 65.104C80.517 65.712 101.637 86.298 126.25 110.85L171 155.492L171 113.696C171 68.363 171.08 67.651 176.472 65.195C180.866 63.193 184.692 63.753 188.234 66.918L191.5 69.835L191.774 127.494L192.048 185.152L188.624 188.576L185.2 192L128.85 191.937C97.857 191.902 71.55 191.489 70.388 191.02" />
    <glyph glyph-name="arrow-up"
      unicode="&#xEA1B;"
      horiz-adv-x="256" d="M83.264 172.736C43.621 133.093 43 132.41 43 128.459C43 123.764 44.934 120.603 49.134 118.431C55.262 115.262 56.405 116.117 87.728 147.307L116.956 176.411L117.228 112.623L117.5 48.835L120.766 45.918C125.283 41.882 130.717 41.882 135.234 45.918L138.5 48.835L138.772 112.623L139.044 176.411L168.272 147.307C199.595 116.117 200.738 115.262 206.866 118.431C211.066 120.603 213 123.764 213 128.459C213 132.41 212.379 133.093 172.736 172.736L132.472 213L128 213L123.528 213L83.264 172.736" />
    <glyph glyph-name="at-sign"
      unicode="&#xEA1C;"
      horiz-adv-x="256" d="M107.922 243.448C63.799 235.458 27.656 203.023 15.495 160.504C12.128 148.73 11.044 140.83 11.02 127.881C10.926 77.72 43.059 32.975 90.58 17.095C105.041 12.263 117.059 10.653 133.938 11.289C150.114 11.898 160.961 14.297 174.948 20.358C184.106 24.327 198.227 33.201 201.006 36.735C204.757 41.503 202.639 51.046 197.387 53.043C192.831 54.775 190.612 54.069 180.195 47.574C156.781 32.976 130.993 28.647 105.145 34.975C70.619 43.427 44.053 69.92 34.787 105.141C31.594 117.277 31.637 138.965 34.879 151C43.881 184.421 67.944 209.864 100 219.854C106.249 221.802 121.096 224 128 224C134.904 224 149.751 221.802 156 219.854C182.296 211.659 205.475 190.892 216.042 166.061C220.836 154.794 223.077 143.933 223.686 129C224.377 112.092 223.434 108.067 217.434 102.297C207.331 92.582 191.351 94.741 184.277 106.777C181.167 112.066 181.279 110.441 181.096 152.827L181 175.154L178.077 178.077C172.951 183.203 164.425 181.644 161.257 175.001L159.5 171.316L153.5 174.609C133.88 185.376 109.511 182.537 92.297 167.479C75.97 153.196 70.261 127.924 78.748 107.5C84.799 92.938 98.137 81.116 113.909 76.336C119.235 74.722 135.957 74.586 141.5 76.112C148.061 77.919 157.048 82.798 162.685 87.614L167.976 92.134L172.926 87.262C185.683 74.704 206.235 71.511 222.207 79.605C229.568 83.335 237.477 91.674 241.291 99.726C244.408 106.307 244.51 106.945 244.835 122.068C245.207 139.417 243.828 150.102 239.402 164.136C226.522 204.974 190.559 235.963 147.29 243.509C136.848 245.33 118.153 245.301 107.922 243.448M141.375 157.061C147.366 154.16 154.168 147.341 157.126 141.27C160.587 134.168 160.466 122.561 156.852 114.852C153.624 107.966 147.378 101.525 141.149 98.659C134.581 95.636 121.419 95.636 114.851 98.659C101.718 104.702 93.838 120.692 96.917 135.05C99.128 145.359 108.143 155.294 118.296 158.612C124.404 160.608 135.601 159.856 141.375 157.061" />
    <glyph glyph-name="attributes"
      unicode="&#xEA1D;"
      horiz-adv-x="256" d="M214.08 32H135.5733333333333A28.800000000000004 28.800000000000004 0 0 0 118.5066666666667 37.44L80.4266666666667 64.7466666666667A25.386666666666663 25.386666666666663 0 0 0 80.4266666666667 105.92L118.5066666666667 133.2266666666667A29.546666666666663 29.546666666666663 0 0 0 135.5733333333333 138.6666666666667H214.08A32 32 0 0 0 246.08 106.6666666666667V64A32 32 0 0 0 214.08 32zM135.5733333333333 117.3333333333333A7.573333333333334 7.573333333333334 0 0 1 130.9866666666667 115.84L92.9066666666667 88.5333333333334A3.7333333333333334 3.7333333333333334 0 0 1 91.2 85.3333333333334A3.9466666666666663 3.9466666666666663 0 0 1 92.9066666666667 82.0266666666667L130.9866666666667 54.8266666666667A7.573333333333334 7.573333333333334 0 0 1 135.5733333333334 53.3333333333334H214.08A10.666666666666666 10.666666666666666 0 0 1 224.7466666666667 64V106.6666666666667A10.666666666666666 10.666666666666666 0 0 1 214.08 117.3333333333334zM172.2666666666667 224H39.5733333333333A29.759999999999994 29.759999999999994 0 0 1 9.92 194.3466666666667V61.5466666666667A29.653333333333336 29.653333333333336 0 0 1 39.5733333333333 32H64A10.666666666666666 10.666666666666666 0 1 1 64 53.3333333333333H39.5733333333333A8.32 8.32 0 0 0 31.2533333333333 61.5466666666667V194.3466666666667A8.32 8.32 0 0 0 39.5733333333333 202.6666666666667H172.2666666666667A8.32 8.32 0 0 0 180.5866666666667 194.3466666666667V170.6666666666667A10.666666666666666 10.666666666666666 0 0 1 201.92 170.6666666666667V194.3466666666667A29.759999999999994 29.759999999999994 0 0 1 172.2666666666667 224z" />
    <glyph glyph-name="award"
      unicode="&#xEA1E;"
      horiz-adv-x="256" d="M115.315 255.062C82.439 249.812 55.064 225.565 45.809 193.5C43.825 186.625 43.508 183.321 43.555 170C43.605 155.77 43.84 153.804 46.422 146C51.577 130.423 58.22 119.781 69.881 108.423L76.119 102.347L70.058 56.923C66.724 31.941 63.998 10.495 63.999 9.266C64.001 5.779 68.93 1.021 73.251 0.334C76.737 -0.22 78.806 0.818 102.501 15.001L128 30.263L153.499 15.001C176.963 0.956 179.289 -0.215 182.642 0.329C186.997 1.036 190.669 4.218 191.501 8.004C191.833 9.517 189.355 31.364 185.993 56.551L179.881 102.347L186.119 108.423C197.798 119.799 204.458 130.476 209.557 146C212.107 153.762 212.356 155.845 212.425 170C212.513 188.273 210.751 196.097 203.449 209.849C188.65 237.716 162.402 254.367 131.5 255.491C125.45 255.711 118.167 255.518 115.315 255.062M147.853 231.486C175 222.911 193.35 196.113 191.67 167.5C190.408 145.991 180.353 128.759 162.093 116.809C151.123 109.631 143.32 107.5 128 107.5C112.68 107.5 104.877 109.631 93.907 116.809C75.647 128.759 65.592 145.991 64.33 167.5C62.434 199.791 85.159 228.089 117.757 234.033C125.506 235.445 138.912 234.311 147.853 231.486M103.841 88.987C118.38 84.429 137.567 84.46 152.48 89.067C156.172 90.207 159.372 90.962 159.59 90.743C160.138 90.195 167.795 32.594 167.385 32.11C167.202 31.895 159.035 36.508 149.235 42.36C135.893 50.327 130.558 53 128 53C125.442 53 120.107 50.327 106.765 42.36C96.965 36.508 88.798 31.895 88.616 32.11C88.434 32.324 90.009 45.325 92.117 61C94.225 76.675 95.961 89.838 95.975 90.25C96.011 91.325 96.767 91.204 103.841 88.987" />
    <glyph glyph-name="bar-chart-2"
      unicode="&#xEA1F;"
      horiz-adv-x="256" d="M122.381 222.09C120.665 221.044 118.753 218.729 118.131 216.945C117.324 214.63 117 189.111 117 127.819C117 33.741 116.816 36.698 122.872 33.566C126.698 31.588 129.302 31.588 133.128 33.566C139.185 36.698 139 33.724 139 128C139 222.276 139.185 219.302 133.128 222.434C129.133 224.5 126.177 224.405 122.381 222.09M186.381 158.09C184.665 157.044 182.753 154.729 182.131 152.945C181.344 150.688 181 133.312 181 95.819C181 36.71 181.011 36.597 186.872 33.566C190.698 31.588 193.302 31.588 197.128 33.566C202.991 36.598 203 36.693 203 96C203 155.307 202.991 155.402 197.128 158.434C193.133 160.5 190.177 160.405 186.381 158.09M58.217 115.439C53.182 111.913 53 110.503 53 75.018C53 38.565 53.3 36.448 58.872 33.566C62.698 31.588 65.302 31.588 69.128 33.566C74.689 36.442 75 38.609 75 74.5C75 109.431 74.677 112.012 69.883 115.369C66.935 117.434 61.115 117.469 58.217 115.439" />
    <glyph glyph-name="bar-chart"
      unicode="&#xEA20;"
      horiz-adv-x="256" d="M186.381 222.09C184.665 221.044 182.753 218.729 182.131 216.945C181.324 214.63 181 189.111 181 127.819C181 33.741 180.816 36.698 186.872 33.566C190.698 31.588 193.302 31.588 197.128 33.566C203.185 36.698 203 33.724 203 128C203 222.276 203.185 219.302 197.128 222.434C193.133 224.5 190.177 224.405 186.381 222.09M122.381 158.09C120.665 157.044 118.753 154.729 118.131 152.945C117.344 150.688 117 133.312 117 95.819C117 36.71 117.011 36.597 122.872 33.566C126.698 31.588 129.302 31.588 133.128 33.566C138.991 36.598 139 36.693 139 96C139 155.307 138.991 155.402 133.128 158.434C129.133 160.5 126.177 160.405 122.381 158.09M58.381 94.09C53.559 91.15 53 88.004 53 63.819C53 39.493 53.623 36.28 58.872 33.566C62.698 31.588 65.302 31.588 69.128 33.566C74.384 36.284 75 39.478 75 64C75 88.522 74.384 91.716 69.128 94.434C65.133 96.5 62.177 96.405 58.381 94.09" />
    <glyph glyph-name="battery-charging"
      unicode="&#xEA21;"
      horiz-adv-x="256" d="M25.344 201.959C19.064 200.716 13.942 197.714 8.893 192.316C0.336 183.169 0.5 184.435 0.5 127.5L0.5 77.5L2.808 72.401C4.078 69.597 7.003 65.472 9.308 63.235C17.482 55.304 25.105 53 43.169 53C55.736 53 60.082 54.325 62.434 58.872C64.412 62.698 64.412 65.302 62.434 69.128C59.982 73.87 55.865 75 41.048 75C28.08 75 28.019 75.011 24.766 77.917L21.5 80.835L21.22 126.138C20.922 174.367 21 175.282 25.77 179.034C28.061 180.836 29.896 181 47.734 181C69.695 181 72.68 181.698 75.423 187.478C77.383 191.61 77.383 192.39 75.423 196.522C72.679 202.304 69.658 203.014 48.349 202.89C37.982 202.83 27.63 202.411 25.344 201.959M114 202.291C113.175 201.987 111.651 201.01 110.612 200.12C108.617 198.408 68.445 138.694 65.641 133.273C63.603 129.331 63.57 126.733 65.51 122.98C68.163 117.85 69.682 117.539 94.746 117L117.992 116.5L101.796 92.185C84.7 66.519 83.799 64.481 86.945 58.603C88.715 55.295 94.29 52.685 97.895 53.477C99.436 53.815 102.065 55.534 103.738 57.296C105.41 59.058 116.278 74.803 127.889 92.284C146.443 120.219 149 124.547 149 128.018C149 130.969 148.262 132.795 146.084 135.234L143.167 138.5L119.106 138.8L95.046 139.101L109.872 161.308C126.022 185.498 128 188.847 128 192C128 198.681 120.058 204.518 114 202.291M155.321 201.387C152.404 199.948 149 194.893 149 192C149 191.341 149.71 189.307 150.577 187.478C153.09 182.182 156.883 181 171.354 181C185.041 181 187.819 180.27 190.335 176.01C191.822 173.492 192 168.371 192 128.046C192 80.219 191.849 78.563 187.287 76.392C186.304 75.924 175.9 75.307 164.166 75.021L142.831 74.5L139.916 71.234C134.694 65.386 136.636 57.05 143.923 54.032C146.091 53.134 152.496 52.91 167.207 53.217C191.442 53.723 195.549 54.835 203.857 63.143C213.144 72.429 213 71.409 213 128.027C213 173.329 212.861 177.343 211.14 181.874C207.317 191.934 198.418 199.672 188.134 201.878C180.062 203.609 159.194 203.297 155.321 201.387M237.923 146.077L235 143.154L235 128L235 112.846L237.923 109.923C241.247 106.599 246.212 106.024 250.855 108.425C255.179 110.661 256 113.807 256 128.143C256 138.522 255.659 141.768 254.335 144.01C250.917 149.796 242.68 150.834 237.923 146.077" />
    <glyph glyph-name="battery"
      unicode="&#xEA22;"
      horiz-adv-x="256" d="M23 201.632C15.779 200.005 12.112 197.974 7.816 193.218C0.418 185.03 0.5 185.764 0.5 127.5L0.5 75.5L2.804 70.5C7.104 61.167 14.257 55.854 25 54.014C29.507 53.242 55.881 52.993 111 53.201L190.5 53.5L196 56.093C202.636 59.222 207.518 63.945 210.376 70C212.459 74.413 212.5 75.537 212.5 128C212.5 180.463 212.459 181.587 210.376 186C207.518 192.055 202.636 196.778 196 199.907L190.5 202.5L109.5 202.686C48.13 202.827 27.167 202.571 23 201.632M189.139 179.089L191.5 177.178L191.778 128.571L192.056 79.965L189.573 77.482L187.091 75L106.656 75C28.951 75 26.141 75.065 23.861 76.912L21.5 78.823L21.5 128L21.5 177.177L23.861 179.088C26.141 180.935 28.948 181 106.5 181C184.043 181 186.859 180.935 189.139 179.089M237.923 146.077L235 143.154L235 128L235 112.846L237.923 109.923C241.247 106.599 246.212 106.024 250.855 108.425C255.179 110.661 256 113.807 256 128.143C256 138.522 255.659 141.768 254.335 144.01C250.917 149.796 242.68 150.834 237.923 146.077" />
    <glyph glyph-name="bell-off"
      unicode="&#xEA23;"
      horiz-adv-x="256" d="M6.388 255.02C1.165 252.91 -1.467 245.767 1.105 240.684C1.713 239.483 14.138 226.523 28.715 211.883C49.558 190.952 55.091 184.861 54.617 183.369C54.286 182.325 53.57 173.153 53.027 162.986C52.483 152.819 51.33 140.507 50.464 135.626C46.884 115.45 38.799 97.134 28.714 86.353C22.094 79.277 20.501 75.093 22.56 70.196C25.258 63.778 22.363 64 103.206 64L176.512 64L207.006 33.434C223.778 16.623 238.715 2.223 240.2 1.434C248.581 -3.017 258.221 5.007 255.494 14.163C254.685 16.879 19.832 252.428 15.8 254.567C12.804 256.157 9.585 256.311 6.388 255.02M109.5 243.122C100.786 240.967 89.793 235.614 85.213 231.295C82.005 228.268 81.778 227.666 82.253 223.446C82.85 218.155 85.819 214.418 90.189 213.458C92.441 212.964 95.058 213.752 101.399 216.837C113.364 222.656 120.675 224.344 131 223.671C145.325 222.736 155.825 218.015 165.829 208.011C172.186 201.654 177.025 193.407 179.332 185C180.175 181.926 181.119 172.663 181.472 164C182.158 147.149 183.779 134.242 186.873 121.008C188.478 114.141 189.449 111.988 191.945 109.758C195.657 106.441 200.111 106.161 204.696 108.956C209.438 111.848 209.753 115.602 206.565 131.237C204.63 140.722 203.633 149.662 202.972 163.434C201.931 185.162 200.074 194.262 194.528 204.815C184.415 224.059 164.899 239.348 145.185 243.47C135.458 245.504 118.463 245.338 109.5 243.122M115.5 125L155.491 85L105.309 85L55.127 85L59.487 94.25C67.824 111.936 72.563 131.019 73.581 151C74.127 161.705 74.513 165 75.223 165C75.381 165 93.505 147 115.5 125M104.42 41.115C97.74 37.041 97.533 29.084 103.919 21.83C114.805 9.462 133.586 7.398 146.976 17.098C151.69 20.512 157 28.272 157 31.745C157 35.412 154.267 39.811 150.91 41.546C146.513 43.82 142.358 42.552 137.362 37.412C130.573 30.426 125.25 30.308 119.077 37.008C115.779 40.589 111.585 43.005 108.685 42.996C108.033 42.994 106.114 42.147 104.42 41.115" />
    <glyph glyph-name="bell"
      unicode="&#xEA24;"
      horiz-adv-x="256" d="M111 243.449C102.423 241.612 88.022 234.352 80.298 227.972C76.886 225.154 71.646 219.62 68.651 215.674C57.202 200.588 54.372 191.152 52.998 163.5C52.479 153.05 51.342 140.507 50.472 135.626C46.867 115.412 38.793 97.128 28.714 86.353C22.094 79.277 20.501 75.093 22.56 70.196C25.301 63.676 19.79 64 128 64C237.086 64 230.679 63.593 233.652 70.708C235.755 75.743 234.824 78.093 227.614 85.951C217.06 97.451 209.163 115.215 205.532 135.626C204.664 140.507 203.513 153.095 202.974 163.599C201.547 191.438 198.285 201.897 186.248 217.217C176.714 229.352 159.065 240.466 144.5 243.505C135.801 245.32 119.61 245.293 111 243.449M145.202 221.136C160.594 215.751 172.172 204.394 178.225 188.745C179.821 184.619 180.535 178.914 181.572 162C183.5 130.577 187.143 114.043 196.5 94.25L200.873 85L128 85L55.127 85L59.483 94.25C68.853 114.147 72.499 130.688 74.416 162C75.814 184.832 76.645 188.599 82.472 198.543C86.021 204.599 94.945 213.262 101.335 216.854C106.254 219.62 113.58 222.324 119 223.375C124.318 224.406 139.582 223.102 145.202 221.136M104.42 41.115C97.74 37.041 97.533 29.084 103.919 21.83C114.805 9.462 133.586 7.398 146.976 17.098C151.69 20.512 157 28.272 157 31.745C157 35.412 154.267 39.811 150.91 41.546C146.513 43.82 142.358 42.552 137.362 37.412C130.573 30.426 125.25 30.308 119.077 37.008C115.779 40.589 111.585 43.005 108.685 42.996C108.033 42.994 106.114 42.147 104.42 41.115" />
    <glyph glyph-name="big-group"
      unicode="&#xEA25;"
      horiz-adv-x="256" d="M213.3333333333333 21.3333333333333A10.666666666666666 10.666666666666666 0 0 0 202.6666666666667 32V53.3333333333333A32 32 0 0 1 170.6666666666667 85.3333333333333H85.3333333333333A32 32 0 0 1 53.3333333333333 53.3333333333333V32A10.666666666666666 10.666666666666666 0 0 0 32 32V53.3333333333333A53.33333333333333 53.33333333333333 0 0 0 85.3333333333333 106.6666666666667H170.6666666666667A53.33333333333333 53.33333333333333 0 0 0 224 53.3333333333334V32A10.666666666666666 10.666666666666666 0 0 0 213.3333333333334 21.3333333333334zM181.3333333333333 181.3333333333334A53.33333333333333 53.33333333333333 0 1 1 128 128A53.33333333333333 53.33333333333333 0 0 1 181.3333333333333 181.3333333333334zM160 181.3333333333334A32 32 0 1 0 128 213.3333333333334A32 32 0 0 0 160 181.3333333333334zM221.6533333333333 118.08A39.89333333333334 39.89333333333334 0 0 1 201.0666666666667 192H200.4266666666667A8.106666666666667 8.106666666666667 0 0 1 192.7466666666667 184A8 8 0 0 1 200.7466666666667 176A24 24 0 0 0 200.1066666666667 128H196.2666666666667A23.573333333333338 23.573333333333338 0 0 0 183.1466666666667 134.72A7.68 7.68 0 0 1 177.3866666666667 137.0666666666667A8.106666666666667 8.106666666666667 0 0 1 169.3866666666667 129.0666666666667A8.853333333333333 8.853333333333333 0 0 1 170.7733333333334 124.5866666666667L171.9466666666667 123.2A39.14666666666667 39.14666666666667 0 0 1 195.0933333333334 111.8933333333334H196.6933333333334A19.94666666666667 19.94666666666667 0 0 0 200.32 111.8933333333334A24.64 24.64 0 0 0 218.4533333333334 96A2.026666666666667 2.026666666666667 0 0 1 218.4533333333334 94.9333333333333A8 8 0 0 1 234.6666666666667 97.7066666666667A7.253333333333333 7.253333333333333 0 0 1 234.0266666666667 100.8A40.42666666666667 40.42666666666667 0 0 1 221.7600000000001 118.08zM196.3733333333333 112H194.7733333333333A27.30666666666667 27.30666666666667 0 0 1 200 112A19.94666666666667 19.94666666666667 0 0 1 196.48 112zM59.52 128zM59.52 112.1066666666667H56.1066666666667A22.933333333333334 22.933333333333334 0 0 1 60.9066666666667 112.1066666666667zM78.5066666666667 137.3866666666667A7.68 7.68 0 0 1 72.7466666666667 135.04A23.89333333333333 23.89333333333333 0 0 0 59.84 128H55.8933333333333A24 24 0 0 0 55.2533333333333 176A7.893333333333333 7.893333333333333 0 0 1 63.2533333333333 184A8.106666666666667 8.106666666666667 0 0 1 55.5733333333333 192H54.9333333333333A40 40 0 0 1 15.8933333333333 151.68A39.46666666666667 39.46666666666667 0 0 1 34.4533333333333 118.08A39.68000000000001 39.68000000000001 0 0 1 22.72 100.8A7.253333333333333 7.253333333333333 0 0 1 22.08 97.7066666666667A8 8 0 0 1 37.6533333333333 95.04V96.1066666666667A24.853333333333335 24.853333333333335 0 0 0 55.68 111.68H60.9066666666667A39.57333333333333 39.57333333333333 0 0 1 84.2666666666667 123.4133333333334A16 16 0 0 1 85.3333333333333 124.8A8 8 0 0 1 86.72 129.28A8.106666666666667 8.106666666666667 0 0 1 78.8266666666667 137.28z" />
    <glyph glyph-name="bluetooth"
      unicode="&#xEA26;"
      horiz-adv-x="256" d="M122.381 254.09C120.665 253.044 118.753 250.729 118.131 248.945C117.354 246.716 117 231.437 117 200.11L117 154.518L96.75 174.653C85.612 185.727 75.517 195.285 74.316 195.894C65.051 200.586 55.415 190.951 60.106 181.684C60.714 180.483 72.74 167.92 86.831 153.767L112.451 128.034L85.726 101.19L59 74.345L59 69.596C59 65.68 59.513 64.333 61.923 61.923C65.092 58.754 70.174 58.009 74.316 60.106C75.517 60.715 85.612 70.273 96.75 81.347L117 101.482L117 55.709C117 5.445 117.097 4.553 122.872 1.566C126.63 -0.377 129.316 -0.414 132.8 1.428C134.285 2.214 149.337 16.743 166.25 33.715L197 64.575L197 69.46L197 74.345L170.274 101.19L143.549 128.034L169.169 153.767C183.26 167.92 195.286 180.483 195.894 181.684C196.502 182.886 197 185.569 197 187.647C197 191.267 195.713 192.717 166.25 222.285C149.338 239.257 134.285 253.786 132.8 254.572C129.148 256.503 126.107 256.362 122.381 254.09M155.246 170.754L139 154.508L139 187L139 219.492L155.246 203.246L171.492 187L155.246 170.754M155.246 52.754L139 36.508L139 69L139 101.492L155.246 85.246L171.492 69L155.246 52.754" />
    <glyph glyph-name="bold"
      unicode="&#xEA27;"
      horiz-adv-x="256" d="M58.381 222.09C56.665 221.044 54.753 218.729 54.131 216.945C53.324 214.63 53 189.111 53 127.819C53 33.741 52.816 36.698 58.872 33.566C63.357 31.247 164.57 31.216 173.458 33.531C191.332 38.187 206.813 53.668 211.469 71.542C214.574 83.461 213.058 98.23 207.581 109.425C204.624 115.468 195.992 125.347 190.104 129.428L185.998 132.274L190.079 136.701C204.947 152.831 206.631 180.317 193.961 200.061C187.231 210.549 172.838 220.287 160.201 222.903C156.795 223.608 138.214 223.999 108.201 223.996C64.065 223.993 61.329 223.888 58.381 222.09M155.413 201.932C166.345 199.911 176.032 191.441 179.56 180.818C181.873 173.856 181.202 163.002 178.078 156.817C175.182 151.085 169.01 144.951 163 141.834C158.524 139.513 158.275 139.498 116.75 139.218L75 138.937L75 170.968L75 203L112.316 203C134.515 203 151.974 202.567 155.413 201.932M173.795 114.207C180.42 110.669 185.67 105.374 188.708 99.165C192.433 91.551 192.632 80.105 189.173 72.401C185.011 63.131 175.71 56.031 165.09 54.017C161.984 53.428 141.898 53 117.364 53L75 53L75 85.037L75 117.074L122.25 116.787C169.335 116.501 169.515 116.492 173.795 114.207" />
    <glyph glyph-name="book-open"
      unicode="&#xEA28;"
      horiz-adv-x="256" d="M17.388 234.053C16.227 233.566 14.314 231.943 13.138 230.448L11 227.73L11 144.088C11 53.355 10.728 57.946 16.301 54.758C17.932 53.825 29.49 53.371 61.08 53L103.659 52.5L107.301 49.721C113.131 45.272 116.193 40.556 116.7 35.244C117.358 28.359 118.815 25.277 122.486 23.009C126.592 20.471 129.408 20.471 133.514 23.009C137.185 25.277 138.642 28.359 139.3 35.244C139.807 40.556 142.869 45.272 148.699 49.721L152.341 52.5L194.92 53C226.51 53.371 238.068 53.825 239.699 54.758C245.273 57.946 245 53.344 245 144.207L245 227.968L242.081 231.234L239.162 234.5L199.831 234.5C161.26 234.5 160.374 234.455 154 232.186C145.995 229.336 138.986 224.818 132.74 218.48L127.981 213.651L123.24 218.444C116.914 224.839 109.889 229.38 102 232.172C95.706 234.4 94.295 234.48 57.5 234.706C36.6 234.835 18.55 234.541 17.388 234.053M99.183 210.106C104.932 207.168 111.059 200.99 114.166 195L116.5 190.5L116.773 129.718L117.045 68.936L113.143 70.927C106.615 74.257 97.868 74.985 64.25 74.992L32 75L32 144.04L32 213.081L63.25 212.79C93.962 212.505 94.581 212.459 99.183 210.106M224 144L224 75L191.75 74.992C158.132 74.985 149.385 74.257 142.857 70.927L138.955 68.936L139.227 129.718L139.5 190.5L141.835 195C144.57 200.269 150.248 206.47 154.5 208.83C161.425 212.674 163.082 212.847 193.75 212.924L224 213L224 144" />
    <glyph glyph-name="book"
      unicode="&#xEA29;"
      horiz-adv-x="256" d="M59 243.587C46.804 238.967 40.327 233.442 35.44 223.487L32.5 217.5L32.193 131.5C31.962 66.99 32.188 44.042 33.097 39.666C35.278 29.164 42.903 19.76 54 13.883L58.5 11.5L136.985 11.226C194.979 11.024 216.205 11.256 218.283 12.117C224.285 14.603 224 8.823 224 128.046C224 228.083 223.861 237.427 222.335 240.01C221.419 241.561 219.598 243.318 218.288 243.915C214.501 245.64 63.601 245.329 59 243.587M202.757 154.75L202.5 85.5L131 85C76.396 84.618 58.984 84.205 57.316 83.25C56.114 82.563 54.639 82 54.038 82C53.255 82 53.023 100.525 53.222 147.25C53.491 210.461 53.563 212.604 55.5 215.834C56.6 217.667 59.3 220.25 61.5 221.574L65.5 223.981L134.257 223.991L203.014 224L202.757 154.75M203 48L203 32L134.338 32L65.676 32L61.343 34.539C55.971 37.687 53.998 41.361 54.007 48.2C54.014 54.528 56.198 58.359 61.696 61.687L65.5 63.99L134.25 63.995L203 64L203 48" />
    <glyph glyph-name="bookmark"
      unicode="&#xEA2A;"
      horiz-adv-x="256" d="M67.131 233.811C57.607 231.685 48.545 223.572 44.86 213.874C43.096 209.232 43 204.289 43 118.566L43 28.153L45.48 25.206C48.3 21.855 52.776 20.584 56.616 22.044C58.055 22.591 74.367 33.91 92.866 47.198C111.365 60.485 127.175 71.352 128 71.345C128.825 71.339 144.93 60.265 163.789 46.738C182.647 33.21 199.377 21.856 200.966 21.508C204.351 20.764 209.123 22.909 211.439 26.217C212.826 28.196 213 38.533 213 118.712C213 204.293 212.903 209.233 211.14 213.874C207.317 223.934 198.418 231.672 188.134 233.878C181.503 235.3 73.534 235.24 67.131 233.811M186.359 211.882C187.708 211.268 189.549 209.355 190.45 207.632C191.933 204.796 192.06 197.349 191.794 128.838L191.5 53.177L161.5 74.576C136.16 92.652 130.956 95.976 128 95.976C125.044 95.976 119.84 92.652 94.5 74.576L64.5 53.177L64.206 128.838C63.939 197.439 64.065 204.793 65.555 207.641C66.459 209.369 68.166 211.251 69.349 211.824C72.461 213.329 183.061 213.385 186.359 211.882" />
    <glyph glyph-name="box"
      unicode="&#xEA2B;"
      horiz-adv-x="256" d="M117 243.119C114.525 242.135 94.95 231.356 73.5 219.166C41.897 201.205 33.62 196.062 29.862 192.052C21.499 183.13 21.597 183.817 21.229 131.73C21.027 103.033 21.292 83.873 21.94 80.365C23.279 73.123 26.395 66.974 30.898 62.689C36.361 57.491 112.807 14.131 120.822 11.684C131.592 8.397 133.919 9.336 180.5 35.77C202.5 48.254 222.352 60.165 224.615 62.237C226.954 64.38 229.974 68.7 231.615 72.253L234.5 78.5L234.5 127.5C234.5 173.083 234.367 176.881 232.597 181.968C229.174 191.805 224.807 195.003 180.452 220.155C158.478 232.615 138.97 243.302 137.101 243.905C132.029 245.539 122.117 245.151 117 243.119M166.752 203.484C186.093 192.503 201.599 183.21 201.209 182.833C199.672 181.349 129.056 141 127.995 141C127.092 141 70.901 172.929 57.184 181.237L53.868 183.245L89.684 203.687C118.514 220.143 126.094 224.064 128.543 223.79C130.217 223.603 147.411 214.465 166.752 203.484M80.705 142.98C99.842 131.915 115.842 122.529 116.261 122.12C116.68 121.712 116.905 102.401 116.761 79.208L116.5 37.038L82 56.578C63.025 67.325 46.487 77.242 45.25 78.615L43 81.112L43 122.663C43 158.619 43.196 164.139 44.455 163.656C45.256 163.348 61.568 154.044 80.705 142.98M213 122.611C213 84.655 212.855 81.048 211.25 79.134C210.287 77.985 193.75 68.027 174.5 57.004L139.5 36.962L139.239 79.17C139.095 102.384 139.32 121.719 139.739 122.136C140.874 123.265 211.378 163.947 212.25 163.976C212.662 163.989 213 145.375 213 122.611" />
    <glyph glyph-name="briefcase"
      unicode="&#xEA2C;"
      horiz-adv-x="256" d="M99.131 233.811C93.221 232.491 86.095 227.946 82.055 222.918C76.972 216.594 75 210.347 75 200.575L75 192.172L53.75 191.836C32.813 191.505 32.416 191.459 26.792 188.697C21.109 185.906 17.008 181.716 13.387 175C11.593 171.673 11.5 168.309 11.5 107C11.5 43.699 11.539 42.416 13.588 37.989C16.37 31.978 21.293 27.227 27.994 24.083L33.5 21.5L128 21.5L222.5 21.5L228 24.093C234.636 27.222 239.518 31.945 242.376 38C244.473 42.443 244.5 43.322 244.5 107L244.5 171.5L242.243 175.723C239.177 181.462 233.616 186.823 228.089 189.368C223.968 191.267 221.333 191.517 202.25 191.827L181 192.172L181 200.575C181 206.347 180.417 210.512 179.14 213.874C175.317 223.934 166.418 231.672 156.134 233.878C149.727 235.252 105.354 235.2 99.131 233.811M154.288 211.915C158.196 210.134 160 205.928 160 198.596L160 192L128 192L96 192L96 198.596C96 205.731 97.782 210.09 101.42 211.855C104.331 213.268 151.203 213.32 154.288 211.915M74.757 106.75L75.015 43L55.962 43C37.066 43 36.889 43.02 34.455 45.455L32 47.909L32 105.889C32 140.533 32.387 164.887 32.96 166.396C34.388 170.151 38.476 170.863 57.5 170.671L74.5 170.5L74.757 106.75M160 107L160 43L128 43L96 43L96 107L96 171L128 171L160 171L160 107M218.298 169.934C220.889 169.215 222.398 168.084 223.048 166.375C223.611 164.893 224 140.19 224 105.889L224 47.909L221.545 45.455C219.111 43.02 218.933 43 200.045 43L181 43L181 106.333C181 141.167 181.3 169.967 181.667 170.333C182.755 171.422 214.173 171.08 218.298 169.934" />
    <glyph glyph-name="calendar"
      unicode="&#xEA2D;"
      horiz-adv-x="256" d="M77.923 242.077C75.213 239.367 75 238.609 75 231.665L75 224.176L59.25 223.826C45.401 223.519 42.897 223.2 38.5 221.185C28.925 216.796 23.64 209.496 22.045 198.455C20.673 188.96 20.676 44.588 22.049 36.129C23.937 24.491 29.893 16.68 39.667 13.024C44.936 11.052 47.202 11 128 11C208.798 11 211.064 11.052 216.333 13.024C222.46 15.316 228.086 20.288 230.986 25.973C234.825 33.497 235.104 40.585 234.771 122.048C234.412 210.081 234.809 205.391 226.963 214.305C220.374 221.79 215.285 223.392 196.75 223.816L181 224.176L181 231.665C181 238.609 180.787 239.367 178.077 242.077C175.95 244.204 174.192 245 171.624 245C163.456 245 160 240.718 160 230.596L160 224L128 224L96 224L96 230.596C96 240.718 92.544 245 84.376 245C81.808 245 80.05 244.204 77.923 242.077M75 194.661C75.449 187.622 75.786 186.576 78.297 184.418C82.316 180.965 85.315 180.501 89.706 182.651C94.61 185.051 95.967 187.991 95.985 196.25L96 203L128 203L160 203L160.015 196.25C160.033 187.991 161.39 185.051 166.294 182.651C170.685 180.501 173.684 180.965 177.703 184.418C180.214 186.576 180.551 187.622 181 194.661L181.5 202.5L195.34 202.5C214.011 202.5 213 203.852 213 178.889L213 160L128 160L43 160L43 178.777C43 203.995 42.061 202.847 62.5 202.628L74.5 202.5L75 194.661M213 87.955L213 36.909L210.545 34.455L208.091 32L128 32L47.909 32L45.455 34.455L43 36.909L43 87.955L43 139L128 139L213 139L213 87.955" />
    <glyph glyph-name="camera-off"
      unicode="&#xEA2E;"
      horiz-adv-x="256" d="M6.388 255.02C1.164 252.909 -1.468 245.765 1.107 240.684C1.715 239.483 10.086 230.575 19.707 220.889L37.201 203.278L30.311 202.599C21.369 201.718 14.608 198.485 8.917 192.369C0.125 182.919 0.5 186.519 0.5 111.5L0.5 45.5L2.808 40.401C7.013 31.113 16.3 24.029 26.91 22.017C30.306 21.373 66.619 21 125.907 21L219.542 21L228.521 11.928C238.252 2.097 241.303 0 245.874 0C252.087 0 257.388 7.804 255.494 14.163C254.685 16.879 19.832 252.428 15.8 254.567C12.804 256.157 9.585 256.311 6.388 255.02M93 234.296C90.175 233.268 86.097 228.72 85.479 225.906C84.596 221.882 87.452 216.488 91.478 214.577C94.271 213.252 99.57 212.997 124.651 212.98L154.5 212.959L163.318 199.59C176.43 179.711 172.423 181.592 202.928 181C223.83 180.594 229.04 180.217 230.504 179C234.878 175.366 235 173.74 235 118.955L235 66.846L237.872 63.974C241.6 60.246 244.86 59.497 249.292 61.348C256.269 64.264 256.098 62.623 255.783 123.763C255.5 178.486 255.499 178.501 253.195 183.592C250.303 189.98 243.021 197.215 236.5 200.18C231.877 202.282 229.818 202.481 209.217 202.824L186.933 203.194L177.257 217.583C170.291 227.94 166.686 232.395 164.389 233.486C161.726 234.749 155.679 234.987 127.849 234.921C109.507 234.878 93.825 234.596 93 234.296M73.589 166.911L87.703 152.822L83.462 146.497C75.032 133.926 72.457 118.17 76.371 103.105C80.824 85.967 93.892 72.441 111.942 66.287C126.574 61.299 147.651 64.808 159.36 74.182L163.221 77.272L180.357 60.136L197.493 43L112.762 43L28.032 43L24.766 45.918L21.5 48.835L21.227 110.155C20.937 175.349 20.929 175.226 25.77 179.034C28.013 180.798 29.874 181 43.872 181L59.475 181L73.589 166.911M125.89 114.61L148.264 92.219L145.882 90.661C140.176 86.929 135.421 85.621 127.5 85.608C120.72 85.596 118.694 86.012 114.216 88.331C107.495 91.812 101.393 97.904 98.669 103.851C97.035 107.417 96.534 110.48 96.519 117C96.503 124.325 96.89 126.295 99.324 131.25C100.877 134.412 102.455 137 102.832 137C103.209 137 113.585 126.924 125.89 114.61" />
    <glyph glyph-name="camera"
      unicode="&#xEA2F;"
      horiz-adv-x="256" d="M91.451 233.45C89.37 232.423 85.331 227.378 78.734 217.569L69.067 203.194L46.783 202.813C20.686 202.367 17.641 201.543 9.225 192.645C0.092 182.988 0.5 186.78 0.5 111.5L0.5 45.5L2.808 40.401C7.013 31.113 16.3 24.029 26.91 22.017C34.221 20.631 221.779 20.631 229.09 22.017C239.7 24.029 248.987 31.113 253.192 40.401L255.5 45.5L255.5 111.5C255.5 186.78 255.908 182.988 246.775 192.645C238.359 201.543 235.314 202.367 209.217 202.813L186.933 203.194L177.257 217.583C170.291 227.94 166.686 232.395 164.389 233.486C159.679 235.721 95.989 235.689 91.451 233.45M163.318 199.59C176.431 179.709 172.415 181.592 202.976 181C231.841 180.441 231.924 180.42 234.064 173.087C234.758 170.71 235.008 149.148 234.806 109.167L234.5 48.835L231.234 45.917L227.968 43L128 43L28.032 43L24.766 45.918L21.5 48.835L21.227 110.155C21.034 153.524 21.281 172.263 22.069 174.166C24.662 180.427 24.782 180.453 53.024 181C83.585 181.592 79.569 179.709 92.682 199.59L101.5 212.959L128 212.959L154.5 212.959L163.318 199.59M118.181 169.881C108.498 168.271 98.609 162.845 90.644 154.774C79.19 143.167 75 133.042 75 116.971C75 102.235 80.07 90.042 90.556 79.556C111.563 58.548 144.629 58.609 165.507 79.693C176.077 90.368 181.01 102.403 180.988 117.46C180.966 132.62 176.395 143.59 165.474 154.689C152.619 167.755 136.508 172.93 118.181 169.881M141.795 146.129C148.332 142.757 153.645 137.426 156.708 131.165C159.032 126.415 159.474 124.228 159.469 117.505C159.461 107.741 156.91 101.269 150.692 95.235C137.39 82.329 118.61 82.329 105.308 95.235C99.063 101.294 96.531 107.745 96.568 117.5C96.623 131.984 104.059 142.513 117.882 147.679C123.39 149.737 136.442 148.891 141.795 146.129" />
    <glyph glyph-name="cast"
      unicode="&#xEA30;"
      horiz-adv-x="256" d="M31.5 221.955C24.781 219.347 17.511 212.902 14.224 206.638C11.672 201.776 11.508 200.624 11.176 185.168C10.787 167.079 11.457 163.849 16.091 161.453C20.536 159.154 24.565 159.64 28.234 162.916L31.5 165.832L32 180.666C32.555 197.139 33.255 199.373 38.548 201.585C43.61 203.699 212.404 203.694 217.466 201.579C224.23 198.753 224 201.339 224 128C224 69.955 223.809 61.532 222.434 58.872C219.536 53.269 217.567 53 179.455 53L144.846 53L141.923 50.077C137.096 45.25 138.505 35.913 144.472 33.195C146.349 32.339 157.294 32 183.01 32C217.331 32 219.18 32.096 224.681 34.154C232.48 37.072 239.939 44.548 242.872 52.386C245.046 58.198 245.05 58.364 244.775 129.855L244.5 201.5L242.137 206C238.744 212.462 230.893 219.522 224.401 221.951C219.025 223.963 217.266 223.999 127.712 223.948C39.879 223.898 36.315 223.824 31.5 221.955M14.077 134.923C11.755 132.602 11.001 130.944 11.004 128.173C11.008 123.637 14.168 118.229 17.219 117.535C18.474 117.249 23.1 116.299 27.5 115.423C61.822 108.587 88.187 81.863 94.51 47.5C95.42 42.55 96.768 37.557 97.505 36.403C100.464 31.773 109.714 30.817 113.293 34.771C116.427 38.235 117.056 41.751 115.893 49.313C110.194 86.375 82.889 119.481 47.834 131.831C38.232 135.214 25.942 138 20.619 138C18.083 138 16.329 137.175 14.077 134.923M16.11 93.661C12.982 91.853 11.079 88.301 11.035 84.184C10.97 78.018 13.054 76.107 24.066 72.237C38.01 67.336 47.591 57.344 51.54 43.586C54.028 34.918 59.104 30.805 65.374 32.379C73.854 34.507 75.171 43.124 69.213 57.5C64.79 68.173 53.985 80.602 43.772 86.762C33.287 93.086 20.594 96.252 16.11 93.661" />
    <glyph glyph-name="check-circle"
      unicode="&#xEA31;"
      horiz-adv-x="256" d="M111 244.395C93.119 241.15 76.291 234.584 62.485 225.466C54.248 220.025 40.819 207.024 34.028 197.915C-1.106 150.789 4.583 83.719 47.13 43.455C82.409 10.069 133.531 1.63 177.486 21.937C200.813 32.714 220.346 51.507 232.21 74.585C240.897 91.485 245 109.166 245 129.708C245 142.131 244.995 142.159 242.077 145.077C239.689 147.465 238.307 148 234.529 148C230.801 148 229.424 147.482 227.428 145.328C224.351 142.007 224.22 141.34 223.66 126C223.087 110.344 220.531 99.871 213.986 86.362C201.674 60.951 179.376 42.538 152.07 35.233C143.887 33.044 140.399 32.673 128 32.673C115.601 32.673 112.113 33.044 103.93 35.233C68.371 44.746 42.914 71.536 33.833 109C31.887 117.03 32.172 140.718 34.319 149.363C40.243 173.213 54.764 194.257 74.296 207.295C86.902 215.71 97.407 219.897 112.381 222.472C128.933 225.32 143.508 224.006 160.643 218.123C165.645 216.405 170.914 215 172.353 215C176.39 215 181.023 219.75 181.666 224.549C182.443 230.342 179.071 234.032 169.727 237.612C155.909 242.906 148.763 244.164 130.5 244.518C121.15 244.7 112.375 244.644 111 244.395M231 223.313C230.175 223.021 206.672 200.006 178.771 172.167L128.043 121.55L114.191 135.275C100.994 148.352 100.149 149 96.305 149C88.6 149 83.412 141.628 86.339 134.836C88.299 130.287 121.702 97.35 125.25 96.467C126.763 96.091 129.238 96.083 130.75 96.448C132.603 96.897 151.691 115.29 189.25 152.817L245 208.52L244.978 213.01C244.939 220.929 238.239 225.868 231 223.313" />
    <glyph glyph-name="check-square"
      unicode="&#xEA32;"
      horiz-adv-x="256" d="M46.147 233.936C40.295 232.771 33.921 228.894 29.648 223.902C25.25 218.763 23.251 214.599 21.988 207.937C20.663 200.949 20.663 55.051 21.988 48.063C24.056 37.158 29.728 29.736 39.771 24.792L46.458 21.5L128 21.5L209.542 21.5L216.229 24.792C223.132 28.19 228.567 33.459 231.462 39.56C234.607 46.19 235.069 53.604 234.784 92.891L234.5 131.963L231.253 135.209C226.687 139.774 221.313 139.774 216.747 135.209L213.5 131.964L213 89.894L212.5 47.825L209.694 45.412L206.888 43L127.867 43L48.846 43L45.923 45.923L43 48.846L43 128L43 207.154L45.923 210.077L48.846 213L110.473 213C163.191 213 172.517 213.216 174.989 214.494C181.67 217.949 183.089 225.63 178.082 231.234L175.165 234.5L112.832 234.651C78.55 234.735 48.541 234.413 46.147 233.936M231 223.313C230.175 223.021 206.672 200.006 178.771 172.167L128.043 121.55L114.191 135.275C100.994 148.352 100.149 149 96.305 149C88.6 149 83.412 141.628 86.339 134.836C88.299 130.287 121.702 97.35 125.25 96.467C126.763 96.091 129.238 96.083 130.75 96.448C132.603 96.897 151.691 115.29 189.25 152.817L245 208.52L244.978 213.01C244.939 220.929 238.239 225.868 231 223.313" />
    <glyph glyph-name="check"
      unicode="&#xEA33;"
      horiz-adv-x="256" d="M210 202.313C209.175 202.022 183.188 176.522 152.252 145.647L96.004 89.511L71.752 113.699C56.883 128.53 46.491 138.131 44.892 138.517C41.128 139.424 35.417 136.707 33.566 133.128C31.623 129.371 31.586 126.685 33.427 123.2C35.887 118.546 90.209 65.207 93.25 64.459C94.763 64.087 97.237 64.084 98.75 64.452C101.783 65.189 220.03 182.415 222.568 187.2C223.356 188.686 224 190.845 224 192C224 198.672 216.123 204.474 210 202.313" />
    <glyph glyph-name="chevron-down"
      unicode="&#xEA34;"
      horiz-adv-x="256" d="M59.321 169.387C55.268 167.388 52.622 162.039 53.541 157.703C54.065 155.229 61.752 146.935 87.305 121.271C105.501 102.996 121.898 87.327 123.742 86.452C130.43 83.278 130.929 83.66 166.729 119.305C185.004 137.501 200.673 153.898 201.548 155.742C203.554 159.969 202.753 163.911 199.201 167.288C195.794 170.529 192.249 171.422 188.461 169.996C186.81 169.375 172.778 156.196 156.75 140.214L128 111.546L99.25 140.214C83.438 155.981 69.233 169.358 67.685 169.941C64.017 171.321 63.122 171.261 59.321 169.387" />
    <glyph glyph-name="chevron-left"
      unicode="&#xEA35;"
      horiz-adv-x="256" d="M155.5 201.49C151.176 199.212 88.292 136.136 86.427 132.205C83.282 125.578 83.707 125.023 119.305 89.271C137.501 70.996 153.898 55.327 155.742 54.452C159.969 52.446 163.911 53.247 167.288 56.799C170.529 60.206 171.422 63.751 169.996 67.539C169.375 69.19 156.196 83.222 140.214 99.25L111.546 128L140.214 156.75C155.981 172.562 169.377 186.816 169.982 188.424C171.461 192.352 170.476 196.17 167.165 199.342C163.631 202.728 159.348 203.516 155.5 201.49" />
    <glyph glyph-name="chevron-right"
      unicode="&#xEA36;"
      horiz-adv-x="256" d="M91.321 201.387C87.266 199.387 84.621 194.038 85.543 189.703C86.066 187.246 93.003 179.687 115.324 157.25L144.424 128L115.324 98.75C93.003 76.313 86.066 68.754 85.543 66.297C84.024 59.16 91.156 52.027 98.297 53.541C100.771 54.065 109.065 61.752 134.729 87.305C153.004 105.501 168.673 121.898 169.548 123.742C172.722 130.43 172.34 130.929 136.695 166.729C118.499 185.004 102.167 200.642 100.404 201.479C96.426 203.366 95.312 203.355 91.321 201.387" />
    <glyph glyph-name="chevron-up"
      unicode="&#xEA37;"
      horiz-adv-x="256" d="M123.427 169.438C121.737 168.604 105.474 152.977 87.287 134.711C61.748 109.061 54.065 100.771 53.541 98.297C52.027 91.156 59.16 84.024 66.297 85.543C68.754 86.066 76.314 93.004 98.758 115.332L128.015 144.439L156.758 115.779C172.566 100.015 186.816 86.623 188.424 86.018C192.342 84.543 196.173 85.523 199.288 88.799C202.528 92.205 203.422 95.75 201.998 99.539C200.602 103.254 136.739 167.421 132.379 169.491C128.446 171.357 127.302 171.35 123.427 169.438" />
    <glyph glyph-name="chevrons-down"
      unicode="&#xEA38;"
      horiz-adv-x="256" d="M70.315 201.575C66.977 200.083 64 195.569 64 192C64 190.845 64.642 188.686 65.427 187.2C67.887 182.546 122.209 129.207 125.25 128.459C126.763 128.087 129.238 128.087 130.75 128.459C133.791 129.207 188.113 182.546 190.573 187.2C192.414 190.685 192.377 193.371 190.434 197.128C188.583 200.707 182.872 203.424 179.108 202.517C177.509 202.131 167.118 192.53 152.25 177.702L128 153.515L103.75 177.739C77.871 203.589 76.694 204.428 70.315 201.575M70.388 127.02C64.9 124.802 62.522 117.709 65.421 112.2C66.202 110.715 79.365 97.064 94.671 81.864C123.943 52.794 125.402 51.693 131.576 54.019C134.868 55.259 188.358 108.009 190.573 112.2C195.009 120.595 186.968 130.244 177.837 127.483C176.552 127.095 164.808 116.148 151.74 103.156L127.98 79.536L104.74 102.662C91.958 115.381 80.517 126.286 79.316 126.894C76.774 128.181 73.38 128.229 70.388 127.02" />
    <glyph glyph-name="chevrons-left"
      unicode="&#xEA39;"
      horiz-adv-x="256" d="M111.5 190.162C106.375 186.841 55.183 134.666 54.019 131.576C51.693 125.403 52.794 123.944 81.864 94.671C97.064 79.365 110.715 66.202 112.2 65.421C120.608 60.997 130.274 69.063 127.47 78.163C127.074 79.448 116.131 91.196 103.152 104.269L79.554 128.038L102.671 151.269C115.386 164.046 126.286 175.483 126.894 176.684C131.575 185.93 120.26 195.836 111.5 190.162M186.5 190.105C180.947 186.612 129.177 133.67 128.459 130.75C128.088 129.237 128.087 126.762 128.459 125.25C129.207 122.209 182.546 67.887 187.2 65.427C190.859 63.493 193.895 63.638 197.647 65.926C201.609 68.342 203.518 73.483 201.983 77.606C201.39 79.198 190.242 91.188 177.21 104.25L153.515 128L177.702 152.25C192.53 167.118 202.131 177.509 202.517 179.108C203.424 182.872 200.707 188.583 197.128 190.434C193.137 192.498 190.157 192.406 186.5 190.105" />
    <glyph glyph-name="chevrons-right"
      unicode="&#xEA3A;"
      horiz-adv-x="256" d="M58.353 190.074C54.839 187.931 52.462 182.363 53.525 178.766C53.893 177.52 65.06 165.588 78.34 152.25L102.485 128L78.79 104.25C65.758 91.188 54.61 79.198 54.017 77.606C52.482 73.483 54.391 68.342 58.353 65.926C62.105 63.638 65.141 63.493 68.8 65.427C73.454 67.887 126.793 122.209 127.541 125.25C127.913 126.762 127.913 129.237 127.541 130.75C126.793 133.791 73.454 188.113 68.8 190.573C65.141 192.507 62.105 192.362 58.353 190.074M134.388 191.02C129.165 188.909 126.533 181.767 129.106 176.684C129.714 175.483 140.614 164.046 153.329 151.269L176.446 128.038L152.848 104.269C139.869 91.196 128.926 79.448 128.53 78.163C125.726 69.063 135.392 60.997 143.8 65.421C145.285 66.202 158.936 79.365 174.136 94.671C203.206 123.943 204.307 125.402 201.981 131.576C200.741 134.868 147.991 188.358 143.8 190.573C140.802 192.157 137.581 192.31 134.388 191.02" />
    <glyph glyph-name="chevrons-up"
      unicode="&#xEA3B;"
      horiz-adv-x="256" d="M123.415 201.432C119.349 199.426 65.45 145.18 64.526 142.163C61.838 133.39 71.292 125.044 79.316 129.106C80.517 129.714 91.963 140.623 104.75 153.348L128 176.484L151.25 153.348C164.037 140.623 175.483 129.714 176.684 129.106C184.708 125.044 194.162 133.39 191.474 142.163C190.515 145.293 136.507 199.532 132.416 201.473C128.442 203.359 127.309 203.354 123.415 201.432M123.5 126.853C120.383 125.159 67.044 71.832 65.434 68.8C63.586 65.319 63.621 62.633 65.566 58.872C67.424 55.28 73.132 52.571 76.892 53.497C78.475 53.887 89.029 63.63 103.75 78.292L128 102.446L152.25 78.292C166.971 63.63 177.525 53.887 179.108 53.497C182.868 52.571 188.576 55.28 190.434 58.872C192.379 62.633 192.414 65.319 190.566 68.8C188.84 72.05 135.428 125.32 132.316 126.895C129.577 128.28 126.097 128.264 123.5 126.853" />
    <glyph glyph-name="chrome"
      unicode="&#xEA3C;"
      horiz-adv-x="256" d="M107.922 243.448C83.091 238.952 60.3 226.606 42.709 208.123C13.488 177.419 3.563 133.195 16.61 91.829C31.574 44.381 77.329 10.989 127.358 11.003C207.529 11.026 263.539 87.602 239.39 164.171C226.522 204.972 190.543 235.966 147.29 243.509C136.848 245.33 118.153 245.301 107.922 243.448M143.619 222.472C154.093 220.671 157.164 219.769 166.5 215.751C180.574 209.694 196.573 197.084 204.904 185.485L208.124 181L164.272 181C115.898 181 114.104 180.817 102.581 174.719C95.32 170.876 84.288 160.17 81.5 154.261C80.4 151.93 79.247 150.018 78.937 150.011C78.627 150.005 73.116 159.101 66.691 170.225L55.007 190.449L60.754 196.298C70.209 205.921 86.226 215.538 100 219.862C112.668 223.839 129.737 224.86 143.619 222.472M61.483 136.368C71.558 118.84 81.073 102.475 82.628 100C92.157 84.831 106.711 76.12 124.261 75.079L134.022 74.5L122.519 54.503C116.192 43.504 110.604 34.368 110.102 34.201C108.46 33.653 96.654 37.1 89.5 40.214C62.623 51.916 42.511 75.783 34.787 105.141C31.615 117.195 31.638 138.975 34.836 150.827C37.739 161.591 41.25 170.15 42.321 169.079C42.785 168.615 51.408 153.895 61.483 136.368M141.375 157.061C147.366 154.16 154.168 147.341 157.126 141.27C160.587 134.168 160.466 122.561 156.852 114.852C153.624 107.966 147.378 101.525 141.149 98.659C134.581 95.636 121.419 95.636 114.851 98.659C101.718 104.702 93.838 120.692 96.917 135.05C99.128 145.359 108.143 155.294 118.296 158.612C124.404 160.608 135.601 159.856 141.375 157.061M221.125 150.75C224.562 136.882 224.397 117.154 220.734 103.797C211.281 69.331 184.206 42.721 150.836 35.099C140.216 32.674 135 31.933 135 32.85C135 33.248 143.609 48.407 154.13 66.537C176.125 104.437 178.281 108.548 179.997 115.868C182.83 127.947 179.877 145.831 173.331 156.25L170.975 160L194.904 160L218.833 160L221.125 150.75" />
    <glyph glyph-name="circle"
      unicode="&#xEA3D;"
      horiz-adv-x="256" d="M107.922 243.448C63.799 235.458 27.656 203.023 15.495 160.504C12.128 148.73 11.044 140.83 11.02 127.881C10.899 63.339 63.28 11.006 128 11.006C192.779 11.006 245 63.224 245 128C245 185.279 204.127 233.597 147.29 243.509C136.848 245.33 118.153 245.301 107.922 243.448M143.619 222.472C154.093 220.671 157.164 219.769 166.5 215.751C193.592 204.091 213.792 179.922 221.226 150.274C224.566 136.954 224.354 116.998 220.734 103.797C211.238 69.174 184.993 43.451 150.336 34.797C137.866 31.683 118.134 31.683 105.664 34.797C70.424 43.596 44.107 69.715 34.787 105.141C31.594 117.277 31.637 138.965 34.879 151C43.883 184.428 67.846 209.768 100 219.862C112.668 223.839 129.737 224.86 143.619 222.472" />
    <glyph glyph-name="clipboard"
      unicode="&#xEA3E;"
      horiz-adv-x="256" d="M86.491 243.135C80.477 240.403 76.2 234.986 75.421 229.117L74.772 224.223L65.136 223.83C57.678 223.525 54.426 222.915 50.75 221.129C44.482 218.084 37.988 211.653 34.953 205.484L32.5 200.5L32.221 119.604C31.908 28.488 31.639 32.174 39.276 22.859C41.599 20.026 45.975 16.311 49 14.604L54.5 11.5L128 11.5L201.5 11.5L207 14.604C210.025 16.311 214.401 20.026 216.724 22.859C224.361 32.174 224.092 28.488 223.779 119.604L223.5 200.5L221.047 205.484C218.012 211.653 211.518 218.084 205.25 221.129C201.574 222.915 198.322 223.525 190.864 223.83L181.228 224.223L180.579 229.117C179.8 234.986 175.523 240.403 169.509 243.135C165.859 244.793 162.138 244.956 128 244.956C93.862 244.956 90.141 244.793 86.491 243.135M160 213.5L160 203L128 203L96 203L96 213.5L96 224L128 224L160 224L160 213.5M75.022 199.75C75.075 191.932 81.301 184.344 89.5 182.104C94.935 180.619 161.065 180.619 166.5 182.104C174.747 184.357 180.926 191.934 180.978 199.859L181 203.219L188.5 202.84C195.394 202.492 196.263 202.198 199.25 199.212L202.5 195.962L202.8 119.731C203.01 66.248 202.77 42.367 201.995 39.702C201.264 37.186 199.813 35.247 197.696 33.956C194.613 32.076 192.153 32.007 128 32.007C63.847 32.007 61.387 32.076 58.304 33.956C56.187 35.247 54.736 37.186 54.005 39.702C53.23 42.367 52.99 66.232 53.2 119.67L53.5 195.84L56 198.529C59.372 202.157 61.412 202.862 68.75 202.937L75 203L75.022 199.75" />
    <glyph glyph-name="clock"
      unicode="&#xEA3F;"
      horiz-adv-x="256" d="M107.922 243.448C63.799 235.458 27.656 203.023 15.495 160.504C12.128 148.73 11.044 140.83 11.02 127.881C10.899 63.339 63.28 11.006 128 11.006C192.779 11.006 245 63.224 245 128C245 185.279 204.127 233.597 147.29 243.509C136.848 245.33 118.153 245.301 107.922 243.448M143.619 222.472C154.093 220.671 157.164 219.769 166.5 215.751C193.592 204.091 213.792 179.922 221.226 150.274C224.566 136.954 224.354 116.998 220.734 103.797C211.238 69.174 184.993 43.451 150.336 34.797C137.866 31.683 118.134 31.683 105.664 34.797C70.424 43.596 44.107 69.715 34.787 105.141C31.594 117.277 31.637 138.965 34.879 151C43.883 184.428 67.846 209.768 100 219.862C112.668 223.839 129.737 224.86 143.619 222.472M124.5 202.084C123.4 201.608 121.375 200.009 120 198.53L117.5 195.841L117.213 162.113C116.996 136.661 117.242 127.417 118.213 124.442C119.481 120.559 119.865 120.316 143.761 108.25C159.183 100.463 169.147 96 171.111 96C175.416 96 181 101.619 181 105.95C181 112.831 179.271 114.274 158.536 124.699L139.08 134.48L138.79 165.222L138.5 195.964L135.5 198.959C132.272 202.182 127.717 203.476 124.5 202.084" />
    <glyph glyph-name="closed"
      unicode="&#xEA40;"
      horiz-adv-x="256" d="M202.6666666666667 224H181.3333333333333V234.6666666666667A10.666666666666666 10.666666666666666 0 0 1 160 234.6666666666667V224H96V234.6666666666667A10.666666666666666 10.666666666666666 0 0 1 74.6666666666667 234.6666666666667V224H53.3333333333333A32 32 0 0 1 21.3333333333333 192V42.6666666666667A32 32 0 0 1 53.3333333333333 10.6666666666667H202.6666666666666A32 32 0 0 1 234.6666666666667 42.6666666666667V192A32 32 0 0 1 202.6666666666666 224zM213.3333333333333 42.6666666666667A10.666666666666666 10.666666666666666 0 0 0 202.6666666666667 32H53.3333333333333A10.666666666666666 10.666666666666666 0 0 0 42.6666666666667 42.6666666666667V192A10.666666666666666 10.666666666666666 0 0 0 53.3333333333333 202.6666666666667H74.6666666666667V192A10.666666666666666 10.666666666666666 0 0 1 96 192V202.6666666666667H160V192A10.666666666666666 10.666666666666666 0 0 1 181.3333333333334 192V202.6666666666667H202.6666666666667A10.666666666666666 10.666666666666666 0 0 0 213.3333333333334 192zM158.1866666666667 102.1866666666667A10.666666666666666 10.666666666666666 0 0 0 150.72 84.0533333333333A10.666666666666666 10.666666666666666 0 0 0 143.1466666666667 87.1466666666667L128 102.1866666666667L112.8533333333334 87.1466666666667A10.666666666666666 10.666666666666666 0 0 0 97.8133333333333 87.1466666666667A10.666666666666666 10.666666666666666 0 0 0 97.8133333333333 102.1866666666667L112.96 117.3333333333334L97.92 132.3733333333333A10.666666666666666 10.666666666666666 0 0 0 97.92 147.52A10.666666666666666 10.666666666666666 0 0 0 112.96 147.52L128 132.3733333333333L143.04 147.52A10.666666666666666 10.666666666666666 0 0 0 158.08 147.52A10.666666666666666 10.666666666666666 0 0 0 158.08 132.3733333333333L143.1466666666667 117.3333333333334z" />
    <glyph glyph-name="cloud-drizzle"
      unicode="&#xEA41;"
      horiz-adv-x="256" d="M81 254.837C71.375 253.48 56.08 247.916 46.757 242.38C35.512 235.702 20.169 220.326 13.677 209.229C-2.244 182.011 -4.205 149.971 8.284 121.087C12.71 110.849 18.028 103.041 26.962 93.665C35.327 84.886 38.261 83 43.549 83C50.357 83 55.378 91.705 52.095 97.816C51.598 98.742 47.425 103.325 42.822 108C18.668 132.534 14.424 168.609 32.145 198.766C33.99 201.906 39.325 208.341 44 213.067C50.838 219.978 54.162 222.475 61 225.835C84.586 237.425 108.094 237.276 131.104 225.392C147.533 216.907 159.655 202.889 166.069 184.958C170.545 172.445 172.381 171.002 183.827 170.994C201.397 170.982 213.02 167.075 221.9 158.196C241.803 138.292 237.173 104.838 212.597 90.968C205.434 86.925 203 83.836 203 78.788C203 73.128 207.25 69 213.077 69C222.18 69 239.702 82.588 246.851 95.19C260.195 118.715 258.444 146.069 242.224 167.475C231.244 181.965 210.782 191.832 191.434 191.965L186.368 192L184.182 197.275C177.983 212.23 163.583 230.212 151 238.71C130.568 252.509 105.481 258.288 81 254.837M80.5 126.894C75.473 123.991 75.046 122.416 75.022 106.673L75 91.846L77.872 88.974C81.81 85.036 85.092 84.391 89.706 86.651C95.295 89.387 95.968 91.594 95.985 107.234C96 120.814 95.969 121.003 93.25 124.046C90.169 127.494 83.946 128.884 80.5 126.894M166.388 127.02C165.227 126.551 163.314 124.943 162.138 123.448C160.19 120.972 160.001 119.522 160.015 107.115C160.032 91.603 160.713 89.383 166.294 86.651C170.908 84.391 174.19 85.036 178.128 88.974L181 91.846L180.978 106.673C180.959 119.21 180.689 121.829 179.228 123.633C175.943 127.688 171.163 128.949 166.388 127.02M123.321 105.387C118.272 102.897 117 98.909 117 85.567C117 77.777 117.469 72.812 118.421 70.534C119.891 67.017 124.313 64 128 64C131.687 64 136.109 67.017 137.579 70.534C138.531 72.812 139 77.777 139 85.567C139 99.049 137.726 102.953 132.522 105.423C128.421 107.369 127.331 107.364 123.321 105.387M80.5 62.894C75.473 59.991 75.046 58.416 75.022 42.673L75 27.846L77.872 24.974C81.81 21.036 85.092 20.391 89.706 22.651C95.295 25.387 95.968 27.594 95.985 43.234C96 56.814 95.969 57.003 93.25 60.046C90.169 63.494 83.946 64.884 80.5 62.894M166.388 63.02C165.227 62.551 163.314 60.943 162.138 59.448C160.19 56.972 160.001 55.522 160.015 43.115C160.032 27.603 160.713 25.383 166.294 22.651C170.908 20.391 174.19 21.036 178.128 24.974L181 27.846L180.978 42.673C180.959 55.21 180.689 57.829 179.228 59.633C175.943 63.688 171.163 64.949 166.388 63.02M123.321 41.387C118.272 38.897 117 34.909 117 21.567C117 13.777 117.469 8.812 118.421 6.534C119.891 3.017 124.313 0 128 0C131.687 0 136.109 3.017 137.579 6.534C138.531 8.812 139 13.777 139 21.567C139 35.049 137.726 38.953 132.522 41.423C128.421 43.369 127.331 43.364 123.321 41.387" />
    <glyph glyph-name="cloud-lightning"
      unicode="&#xEA42;"
      horiz-adv-x="256" d="M79.408 254.437C59.773 251.137 42.977 242.186 28 227.042C8.309 207.131 -1.13 182.688 0.371 155.5C1.787 129.861 10.36 110.671 28.509 92.513C46.239 74.776 57.799 70.618 63.335 79.99C67.096 86.357 64.723 91.557 55.309 97.579C26.158 116.227 13.492 155.181 26.283 186.849C30.475 197.228 35.099 204.07 44 213.067C50.838 219.978 54.162 222.475 61 225.835C84.586 237.425 108.094 237.276 131.104 225.392C147.533 216.907 159.655 202.889 166.069 184.958C170.596 172.302 172.306 171 184.393 171C189.475 171 196.249 170.516 199.447 169.925C217.284 166.628 230.879 152.61 234.128 134.164C236.314 121.756 231.564 107.659 221.964 98.059C216.259 92.354 211.786 89.795 202.509 86.93C194.759 84.536 191.363 80.316 192.34 74.293C193.673 66.077 200.026 63.548 210.702 66.983C221.461 70.445 228.944 74.944 236.506 82.5C248.687 94.67 254.792 108.032 255.696 124.5C256.717 143.099 250.284 159.867 237.094 172.987C224.904 185.113 213.018 190.431 195.375 191.653L186.25 192.285L184.123 197.417C177.984 212.229 163.53 230.248 151 238.71C129.909 252.954 104.195 258.602 79.408 254.437M132.024 147.024C129.1 144.1 87.991 82.222 86.327 78.241C84.4 73.627 86.062 68.543 90.353 65.926C93.217 64.18 95.592 64.007 116.756 64.004L140.012 64L123.506 39.253C109.424 18.141 107 13.95 107 10.718C107 8.634 107.697 5.866 108.549 4.566C111.896 -0.542 120.61 -1.243 124.715 3.265C128.62 7.554 169.24 69.35 170.081 72.281C170.643 74.243 170.488 76.288 169.619 78.368C167.09 84.417 166.928 84.454 140.364 85L116.031 85.5L132.515 110.299C149.59 135.985 150.42 137.79 147.805 143.528C145.403 148.8 135.904 150.904 132.024 147.024" />
    <glyph glyph-name="cloud-off"
      unicode="&#xEA43;"
      horiz-adv-x="256" d="M6.388 255.02C1.164 252.909 -1.468 245.765 1.107 240.684C1.716 239.483 9.819 230.842 19.114 221.483L36.013 204.466L28.959 197.67C15.999 185.188 7.299 170.962 2.505 154.42C0.25 146.638 0 144.003 0 128C0 111.989 0.249 109.364 2.509 101.565C6.987 86.112 15.565 71.515 26.585 60.595C41.973 45.346 62.004 35.551 82.974 33.022C92.976 31.816 196.523 31.704 202.662 32.893L206.824 33.699L222.162 18.282C238.218 2.142 240.996 0 245.874 0C252.087 0 257.388 7.804 255.494 14.163C254.685 16.879 19.832 252.428 15.8 254.567C12.804 256.157 9.585 256.311 6.388 255.02M97.826 222.352C93.048 219.273 91.698 213.419 94.51 207.98C96.471 204.189 98.02 203.444 106.743 202.1C134.867 197.766 158.29 177.812 166.994 150.772C168.466 146.198 170.119 143.236 172.156 141.522C174.854 139.252 176.019 138.999 183.827 138.994C195.611 138.986 203.081 137.619 210.628 134.087C222.765 128.407 231.812 116.066 234.057 102.126C235.088 95.722 234.322 88.552 231.694 80C229.092 71.536 233.46 65 241.717 65C246.856 65 250.03 68.398 252.928 77C257.912 91.794 256.4700000000001 109.277 248.98 124.894C239.118 145.455 215.908 159.879 192.5 159.995L186.5 160.025L183.763 166.789C178.073 180.851 165.139 196.766 151.428 206.576C134.654 218.579 105.352 227.203 97.826 222.352M181.261 53.183C178.092 53.009 154.575 53.043 129 53.258C84.334 53.635 82.205 53.739 75.027 55.89C43.239 65.419 21.597 92.322 20.219 124.022C19.179 147.959 28.748 170.202 46.348 184.752L51.491 189.004L119.256 121.252L187.022 53.5L181.261 53.183" />
    <glyph glyph-name="cloud-rain"
      unicode="&#xEA44;"
      horiz-adv-x="256" d="M81 254.837C71.375 253.48 56.08 247.916 46.757 242.38C35.512 235.702 20.169 220.326 13.677 209.229C-2.244 182.011 -4.205 149.971 8.284 121.087C12.71 110.849 18.028 103.041 26.962 93.665C35.327 84.886 38.261 83 43.549 83C50.357 83 55.378 91.705 52.095 97.816C51.598 98.742 47.425 103.325 42.822 108C18.668 132.534 14.424 168.609 32.145 198.766C33.99 201.906 39.325 208.341 44 213.067C50.838 219.978 54.162 222.475 61 225.835C84.586 237.425 108.094 237.276 131.104 225.392C147.533 216.907 159.655 202.889 166.069 184.958C170.545 172.445 172.381 171.002 183.827 170.994C201.397 170.982 213.02 167.075 221.9 158.196C241.803 138.292 237.173 104.838 212.597 90.968C205.434 86.925 203 83.836 203 78.788C203 73.128 207.25 69 213.077 69C222.18 69 239.702 82.588 246.851 95.19C260.195 118.715 258.444 146.069 242.224 167.475C231.244 181.965 210.782 191.832 191.434 191.965L186.368 192L184.182 197.275C177.983 212.23 163.583 230.212 151 238.71C130.568 252.509 105.481 258.288 81 254.837M80.5 126.894C74.849 123.631 75.046 125.51 75.022 74.673L75 27.846L77.872 24.974C79.451 23.395 81.91 21.81 83.336 21.452C86.726 20.601 93.086 23.699 94.727 27C95.663 28.882 95.974 40.814 95.985 75.234L96 120.968L93.25 124.046C90.169 127.494 83.946 128.884 80.5 126.894M166.388 127.02C165.227 126.551 163.314 124.943 162.138 123.448C160.024 120.761 160 120.209 160.015 75.115C160.026 40.79 160.337 28.881 161.273 27C162.914 23.699 169.274 20.601 172.664 21.452C174.09 21.81 176.549 23.395 178.128 24.974L181 27.846L180.978 74.673C180.957 117.531 180.809 121.681 179.228 123.633C175.943 127.688 171.163 128.949 166.388 127.02M123.321 105.387C117.053 102.296 117 101.858 117 53.567C117 5.637 117.124 4.539 122.872 1.566C124.538 0.705 126.845 0 128 0C129.155 0 131.462 0.705 133.128 1.566C138.876 4.539 139 5.637 139 53.567C139 102.066 138.962 102.366 132.522 105.423C128.421 107.369 127.331 107.364 123.321 105.387" />
    <glyph glyph-name="cloud-snow"
      unicode="&#xEA45;"
      horiz-adv-x="256" d="M75.991 243.033C30.244 233.492 -2.064 191.623 0.347 145C0.982 132.702 3.925 119.749 8.363 109.715C15.866 92.748 34.473 72 42.186 72C48.58 72 53 76.729 53 83.571C53 86.601 51.931 88.108 44.684 95.289C31.248 108.605 24.236 122.724 21.861 141.248C17.937 171.84 35.499 203.513 63.663 216.641C73.445 221.201 80.77 223.018 92.118 223.699C111.492 224.862 129.23 218.753 145.765 205.224C154.276 198.261 163.869 182.993 167.373 170.837C168.48 166.995 169.994 164.341 172.079 162.587C174.967 160.157 175.803 160 185.867 160C202.525 160 211.828 156.809 221.702 147.707C229.567 140.458 235.937 123.604 234.442 114C233.448 107.612 231.709 101.547 229.732 97.573C226.796 91.67 218.495 83.449 211.55 79.565C204.998 75.901 202.978 73.088 203.032 67.703C203.082 62.674 208.004 58 213.251 58C221.003 58 237.097 69.864 244.547 81.071C257.899 101.156 259.431 124.805 248.772 146.287C243.479 156.953 231.738 168.939 221.842 173.779C213.153 178.028 201.33 180.999 193.09 181.004L186.5 181.007L184.604 185.754C180.354 196.393 173.494 206.497 164 216.101C149.561 230.708 136.235 238.236 117.156 242.564C104.116 245.523 88.766 245.698 75.991 243.033" />
    <glyph glyph-name="cloud"
      unicode="&#xEA46;"
      horiz-adv-x="256" d="M85.5 223.315C61.961 220.289 44.515 211.707 28 195.029C8.337 175.172 -1.097 150.774 0.345 123.5C1.695 97.948 11.406 76.454 29.364 59.272C42.558 46.648 55.64 39.173 72.182 34.807C80.207 32.688 82.56 32.599 139.069 32.255C205.404 31.851 206.351 31.93 220.966 39.137C241.917 49.467 255.965 72.291 255.965 96C255.965 112.482 249.266 128.736 237.632 140.478C225.479 152.745 212.522 158.642 195.376 159.71L186.252 160.279L184.124 165.414C177.984 180.229 163.531 198.247 151 206.71C131.974 219.559 106.508 226.015 85.5 223.315M114.932 199.884C138.835 193.523 157.776 176.142 166.069 152.958C170.545 140.446 172.381 139.002 183.827 138.992C201.906 138.977 212.575 135.33 221.941 125.964C229.295 118.609 232.333 112.495 233.971 101.75C236.604 84.482 226.776 65.785 210.868 57.797C201.754 53.22 195.668 52.843 137.34 53.244C85.139 53.603 83.277 53.682 76.161 55.835C55.401 62.118 38.272 76.292 29.436 94.5C17.728 118.623 18.674 143.84 32.145 166.766C37.237 175.431 51.123 188.843 59.5 193.187C77.452 202.495 96.48 204.794 114.932 199.884" />
    <glyph glyph-name="code"
      unicode="&#xEA47;"
      horiz-adv-x="256" d="M81.5 202.023C80.4 201.556 64.088 185.707 45.25 166.803L11 132.433L11 128L11 123.567L45.187 89.328C63.989 70.496 80.613 54.575 82.128 53.947C90.07 50.657 98.837 60.525 94.895 68.316C94.287 69.517 80.902 83.437 65.151 99.25L36.513 128L65.151 156.75C80.902 172.562 94.287 186.483 94.895 187.684C97.43 192.695 94.836 199.335 89.466 201.579C85.645 203.175 84.377 203.246 81.5 202.023M166.315 201.575C161.125 199.255 158.624 192.587 161.105 187.684C161.713 186.483 175.098 172.562 190.849 156.75L219.487 128L190.849 99.25C175.098 83.437 161.713 69.517 161.105 68.316C157.163 60.525 165.93 50.657 173.872 53.947C175.387 54.575 192.011 70.496 210.813 89.328L245 123.567L245 128.004L245 132.441L210.25 167.208C173.189 204.287 172.895 204.518 166.315 201.575" />
    <glyph glyph-name="codepen"
      unicode="&#xEA48;"
      horiz-adv-x="256" d="M123.106 243.75C114.971 239.511 12.807 172.507 11.903 170.818C11.406 169.891 11 150.398 11 127.502L11 85.872L13.75 83.326C17.314 80.026 118.168 14.552 123.75 11.915L128 9.906L132.25 11.915C137.832 14.552 238.686 80.026 242.25 83.326L245 85.872L245 127.825C245 166.355 244.857 169.941 243.25 171.77C241.843 173.371 144.604 237.07 134.292 243.145C129.441 246.003 127.619 246.102 123.106 243.75M116.984 192.75L116.967 170.5L96.629 156.299C85.443 148.488 75.832 141.963 75.271 141.799C74.245 141.498 40.996 163.981 41.005 164.97C41.008 165.364 115.365 214.385 116.75 214.906C116.888 214.958 116.993 204.988 116.984 192.75M214.989 164.97C215.009 163.986 181.758 141.497 180.729 141.799C180.168 141.963 170.557 148.488 159.371 156.299L139.033 170.5L139.016 192.69L139 214.88L176.989 190.19C197.883 176.611 214.983 165.261 214.989 164.97M145.078 140.3C154.385 133.865 162 128.33 162 128C162 127.67 154.342 122.104 144.981 115.633L127.963 103.866L110.967 115.64C101.619 122.115 94.09 127.754 94.235 128.171C94.469 128.841 127 151.886 127.828 151.968C128.008 151.985 135.771 146.735 145.078 140.3M44.083 136.352C50.088 132.146 55 128.387 55 128C55 127.268 33.609 112 32.583 112C32.263 112 32 119.2 32 128C32 136.8 32.263 144 32.583 144C32.904 144 38.079 140.558 44.083 136.352M224 128C224 119.2 223.737 112 223.417 112C222.095 112 200.967 127.401 201.225 128.176C201.551 129.152 222.129 143.898 223.25 143.959C223.662 143.982 224 136.8 224 128M98.366 98.5L116.971 85.5L116.986 63.313L117 41.127L79.005 65.813C58.108 79.391 41.121 90.82 41.255 91.212C41.39 91.604 48.925 97.079 58 103.379C74.48 114.82 74.503 114.831 77.13 113.167C78.576 112.25 88.132 105.65 98.366 98.5M208.25 96.253C211.963 93.753 214.998 91.435 214.995 91.103C214.992 90.771 197.892 79.391 176.995 65.813L139 41.127L139.014 63.313L139.027 85.5L160.138 100.224L181.249 114.948L191.375 107.874C196.944 103.983 204.537 98.754 208.25 96.253" />
    <glyph glyph-name="codesandbox"
      unicode="&#xEA49;"
      horiz-adv-x="256" d="M117 243.13C114.525 242.152 105.75 237.481 97.5 232.749C89.25 228.018 80.137 222.876 77.248 221.323C53.982 208.817 34.993 197.135 30.406 192.506C21.469 183.486 21.601 184.364 21.229 131.73C21.027 103.033 21.292 83.873 21.94 80.365C23.281 73.112 26.401 66.963 30.898 62.711C33.921 59.852 61.783 42.956 76.074 35.315C78.322 34.113 88.113 28.625 97.831 23.119C108.346 17.162 118.03 12.414 121.75 11.391C127.659 9.766 128.341 9.766 134.25 11.391C137.97 12.414 147.654 17.162 158.169 23.119C167.887 28.625 177.684 34.113 179.94 35.315C195.318 43.508 221.184 59.096 224.615 62.237C226.954 64.38 229.974 68.7 231.615 72.253L234.5 78.5L234.5 127.5C234.5 183.795 234.55 183.41 226.126 191.958C222.056 196.088 199.15 210.28 178.725 221.326C175.851 222.88 166.475 228.166 157.888 233.072C149.301 237.978 140.357 242.668 138.012 243.496C132.334 245.499 122.57 245.329 117 243.13M142.366 217.35C152.528 211.663 153.965 210.561 152.366 209.672C151.34 209.101 145.604 205.791 139.62 202.317C133.637 198.843 128.377 196 127.932 196C127.318 196 103.743 209.315 102.195 210.537C101.342 211.209 125.858 223.99 128 223.99C129.375 223.99 135.84 221.002 142.366 217.35M102.758 185.5C119.269 175.984 125.285 173 127.961 173C130.638 173 136.718 176.017 153.45 185.646L175.423 198.293L180.462 195.626C183.233 194.159 189.255 190.781 193.845 188.12L202.189 183.28L198.845 181.254C185.101 172.929 128.908 141 128 141C127.094 141 70.944 172.903 57.188 181.234L53.876 183.24L66.688 190.59C73.735 194.632 79.853 197.953 80.285 197.97C80.716 197.986 90.829 192.375 102.758 185.5M80.705 142.98C99.842 131.915 115.842 122.529 116.261 122.12C116.68 121.712 116.905 102.403 116.761 79.212L116.5 37.046L103.755 44.273L91.011 51.5L91.004 76.5C90.998 98.333 90.775 101.93 89.248 104.89C87.804 107.691 83.67 110.494 65.5 120.995L43.5 133.709L43.223 148.972C42.985 162.12 43.152 164.156 44.429 163.666C45.244 163.353 61.568 154.044 80.705 142.98M212.776 148.857L212.5 133.714L190.5 121.013C172.25 110.478 168.202 107.732 166.752 104.907C165.225 101.932 165.002 98.327 164.996 76.5L164.989 51.5L152.245 44.273L139.5 37.046L139.239 79.212C139.095 102.403 139.32 121.719 139.739 122.136C140.897 123.288 211.387 163.948 212.276 163.976C212.703 163.989 212.928 157.186 212.776 148.857M62.243 98.251L68.987 94.5L68.993 79.168L69 63.837L65.75 65.796C63.962 66.873 58.784 69.876 54.242 72.469C49.701 75.062 45.313 78.143 44.492 79.314C43.343 80.955 43 84.636 43 95.314L43 109.182L49.25 105.592C52.688 103.617 58.534 100.314 62.243 98.251M211.746 79.745C211.025 78.658 205.162 74.705 198.717 70.96L187 64.151L187.024 79.325L187.048 94.5L199.774 101.742L212.5 108.985L212.779 95.353C212.983 85.38 212.706 81.19 211.746 79.745" />
    <glyph glyph-name="coffee"
      unicode="&#xEA4A;"
      horiz-adv-x="256" d="M58.304 254.044C53.529 251.132 52.8 247.242 53.175 226.666L53.5 208.831L56.766 205.916C59.21 203.733 61.029 203 64 203C66.971 203 68.79 203.733 71.234 205.916L74.5 208.831L74.825 226.666C75.031 237.967 74.736 245.891 74.021 248.298C72.773 252.494 68.216 255.993 64 255.993C62.625 255.993 60.062 255.116 58.304 254.044M102.388 255.02C101.227 254.551 99.314 252.943 98.138 251.448C96.125 248.889 96 247.623 96 229.815C96 209.21 96.597 206.416 101.472 204.195C106.164 202.057 110.854 202.7 114.077 205.923L117 208.846L116.978 229.173C116.958 246.922 116.736 249.771 115.228 251.633C111.943 255.688 107.163 256.949 102.388 255.02M144.5 254.894C139.247 251.861 139.046 250.918 139.022 229.173L139 208.846L141.923 205.923C145.146 202.7 149.836 202.057 154.528 204.195C159.408 206.418 160 209.201 160 229.935L160 248.968L157.25 252.046C154.169 255.494 147.946 256.884 144.5 254.894M13.923 178.077L11 175.154L11 120.805C11 71.206 11.16 65.88 12.83 59.856C15.308 50.92 19.095 44.752 26.922 36.904C34.661 29.143 45 23.679 55 22.064C65.438 20.379 151.901 20.696 160.174 22.449C169.986 24.529 177.576 28.651 185.623 36.269C195.865 45.966 200.618 55.53 202.512 70.25L203.123 75L207.38 75C225.428 75 245.996 90.955 253.194 110.539C256.34 119.1 256.34 136.9 253.194 145.461C248.668 157.775 238.618 169.357 227.61 174.944C215.255 181.215 219.778 180.975 113.673 180.988L16.846 181L13.923 178.077M180.778 112.75L180.5 65.5L178.166 61C175.059 55.01 168.932 48.832 163.183 45.894L158.5 43.5L106.5 43.5L54.5 43.5L49 46.604C45.975 48.311 41.607 52.016 39.293 54.838C32.098 63.614 32 64.422 32 115.182L32 160L106.528 160L181.057 160L180.778 112.75M213.662 157.854C220.286 155.375 228.196 148.497 231.205 142.599C235.186 134.795 235.241 121.234 231.322 113.656C226.978 105.255 216.391 97.564 207.494 96.344L203 95.728L203 127.864L203 160L205.462 160C206.817 160 210.507 159.034 213.662 157.854" />
    <glyph glyph-name="columns"
      unicode="&#xEA4B;"
      horiz-adv-x="256" d="M46.147 233.942C40.289 232.767 33.918 228.89 29.648 223.902C25.25 218.763 23.251 214.599 21.988 207.937C20.663 200.949 20.663 55.051 21.988 48.063C24.056 37.158 29.728 29.736 39.771 24.792L46.458 21.5L128 21.5L209.542 21.5L216.229 24.792C226.385 29.792 232 37.223 234.066 48.4C234.713 51.901 234.976 82.06 234.79 131.694L234.5 209.5L231.865 215.12C228.293 222.738 222.949 228.386 216.161 231.72L210.5 234.5L130.5 234.657C86.5 234.744 48.541 234.422 46.147 233.942M117 128L117 43L82.923 43L48.846 43L45.923 45.923L43 48.846L43 128L43 207.154L45.923 210.077L48.846 213L82.923 213L117 213L117 128M210.077 210.077L213 207.154L213 128L213 48.846L210.077 45.923L207.154 43L173.077 43L139 43L139 128L139 213L173.077 213L207.154 213L210.077 210.077" />
    <glyph glyph-name="command"
      unicode="&#xEA4C;"
      horiz-adv-x="256" d="M57.854 233.936C46.094 232.583 32.831 223.549 26.823 212.799C17.636 196.361 20.607 175.488 34.048 162.048C43.656 152.44 54.207 149.017 74.25 149.006L85 149L85 128L85 107L75.25 106.967C69.888 106.949 62.466 106.543 58.758 106.065C35.069 103.011 18.09 80.658 21.953 57.613C25.023 39.299 39.525 24.898 57.874 21.943C80.192 18.349 102.273 34.707 106.024 57.613C106.555 60.851 106.991 68.338 106.994 74.25L107 85L128 85L149 85L149.006 74.25C149.017 54.207 152.44 43.656 162.048 34.048C186.614 9.481 228.495 23.339 234.057 57.874C236.898 75.513 226.695 94.568 210.304 102.239C203.123 105.599 194.867 106.92 180.75 106.967L171 107L171 128L171 149L181.75 149.006C201.793 149.017 212.344 152.44 221.952 162.048C238.567 178.662 238.567 205.338 221.952 221.952C199.516 244.389 161.478 235.005 151.208 204.5C150.467 202.298 149.607 193.87 149.295 185.75L148.728 171L127.864 171L107 171L106.994 181.75C106.983 201.7 103.549 212.355 94.078 221.827C84.262 231.643 72.397 235.609 57.854 233.936M75.344 209.815C77.458 208.37 80.383 205.458 81.844 203.344C84.368 199.692 84.516 198.786 84.825 185.175L85.15 170.85L70.747 171.175C57.312 171.478 56.097 171.668 52.659 174C41.381 181.65 39.645 197.491 49.054 206.9C53.779 211.625 57.79 213.097 65 212.753C70.043 212.512 72.362 211.853 75.344 209.815M203.344 209.815C205.458 208.37 208.383 205.458 209.844 203.344C212.141 200.02 212.5 198.486 212.5 192C212.5 185.468 212.147 183.984 209.763 180.5C208.258 178.3 205.368 175.375 203.341 174C199.906 171.67 198.684 171.478 185.328 171.176L171 170.852L171 184.025C171 198.41 171.877 201.723 177.054 206.9C181.779 211.625 185.79 213.097 193 212.753C198.043 212.512 200.362 211.853 203.344 209.815M149 128L149 107L128 107L107 107L107 128L107 149L128 149L149 149L149 128M84.824 70.75C84.514 57.12 84.381 56.326 81.763 52.5C80.258 50.3 77.366 47.375 75.337 46C72.197 43.873 70.506 43.5 64 43.5C57.494 43.5 55.803 43.873 52.663 46C41.382 53.643 39.643 69.49 49.054 78.9C54.301 84.148 57.317 84.952 71.824 84.977L85.148 85L84.824 70.75M203.344 81.844C205.458 80.383 208.383 77.458 209.844 75.344C212.141 72.02 212.5 70.486 212.5 64C212.5 57.468 212.147 55.984 209.763 52.5C208.258 50.3 205.366 47.375 203.337 46C200.197 43.873 198.506 43.5 192 43.5C185.494 43.5 183.803 43.873 180.663 46C178.634 47.375 175.742 50.3 174.237 52.5C171.617 56.329 171.486 57.114 171.175 70.825L170.85 85.15L185.175 84.825C198.786 84.516 199.692 84.368 203.344 81.844" />
    </font>
</defs>
</svg>
